  0
SECTION
  2
HEADER
  9
$ACADVER
  1
AC1015
  9
$ACADMAINTVER
 70
     6
  9
$DWGCODEPAGE
  3
ANSI_932
  9
$INSBASE
 10
0.0
 20
0.0
 30
0.0
  9
$EXTMIN
 10
38.9847467779596
 20
101.1364241232243
 30
0.0
  9
$EXTMAX
 10
171.9404047054596
 20
266.3038976632242
 30
0.0
  9
$LIMMIN
 10
38.9847467779596
 20
101.1364241232243
  9
$LIMMAX
 10
171.9404047054596
 20
266.3038976632242
  9
$ORTHOMODE
 70
     0
  9
$REGENMODE
 70
     1
  9
$FILLMODE
 70
     1
  9
$QTEXTMODE
 70
     0
  9
$MIRRTEXT
 70
     1
  9
$LTSCALE
 40
1.0
  9
$ATTMODE
 70
     1
  9
$TEXTSIZE
 40
0.2
  9
$TRACEWID
 40
0.05
  9
$TEXTSTYLE
  7
Standard
  9
$CLAYER
  8
0
  9
$CELTYPE
  6
ByLayer
  9
$CECOLOR
 62
   256
  9
$CELTSCALE
 40
1.0
  9
$DISPSILH
 70
     0
  9
$DIMSCALE
 40
1.0
  9
$DIMASZ
 40
0.18
  9
$DIMEXO
 40
0.0625
  9
$DIMDLI
 40
0.38
  9
$DIMRND
 40
0.0
  9
$DIMDLE
 40
0.0
  9
$DIMEXE
 40
0.18
  9
$DIMTP
 40
0.0
  9
$DIMTM
 40
0.0
  9
$DIMTXT
 40
0.18
  9
$DIMCEN
 40
0.09
  9
$DIMTSZ
 40
0.0
  9
$DIMTOL
 70
     0
  9
$DIMLIM
 70
     0
  9
$DIMTIH
 70
     1
  9
$DIMTOH
 70
     1
  9
$DIMSE1
 70
     0
  9
$DIMSE2
 70
     0
  9
$DIMTAD
 70
     0
  9
$DIMZIN
 70
     0
  9
$DIMBLK
  1

  9
$DIMASO
 70
     1
  9
$DIMSHO
 70
     1
  9
$DIMPOST
  1

  9
$DIMAPOST
  1

  9
$DIMALT
 70
     0
  9
$DIMALTD
 70
     2
  9
$DIMALTF
 40
25.4
  9
$DIMLFAC
 40
1.0
  9
$DIMTOFL
 70
     0
  9
$DIMTVP
 40
0.0
  9
$DIMTIX
 70
     0
  9
$DIMSOXD
 70
     0
  9
$DIMSAH
 70
     0
  9
$DIMBLK1
  1

  9
$DIMBLK2
  1

  9
$DIMSTYLE
  2
Standard
  9
$DIMCLRD
 70
     0
  9
$DIMCLRE
 70
     0
  9
$DIMCLRT
 70
     0
  9
$DIMTFAC
 40
1.0
  9
$DIMGAP
 40
0.09
  9
$DIMJUST
 70
     0
  9
$DIMSD1
 70
     0
  9
$DIMSD2
 70
     0
  9
$DIMTOLJ
 70
     1
  9
$DIMTZIN
 70
     0
  9
$DIMALTZ
 70
     0
  9
$DIMALTTZ
 70
     0
  9
$DIMUPT
 70
     0
  9
$DIMDEC
 70
     4
  9
$DIMTDEC
 70
     4
  9
$DIMALTU
 70
     2
  9
$DIMALTTD
 70
     2
  9
$DIMTXSTY
  7
Standard
  9
$DIMAUNIT
 70
     0
  9
$DIMADEC
 70
     0
  9
$DIMALTRND
 40
0.0
  9
$DIMAZIN
 70
     0
  9
$DIMDSEP
 70
    46
  9
$DIMATFIT
 70
     3
  9
$DIMFRAC
 70
     0
  9
$DIMLDRBLK
  1

  9
$DIMLUNIT
 70
     2
  9
$DIMLWD
 70
    -2
  9
$DIMLWE
 70
    -2
  9
$DIMTMOVE
 70
     0
  9
$LUNITS
 70
     2
  9
$LUPREC
 70
     4
  9
$SKETCHINC
 40
0.1
  9
$FILLETRAD
 40
0.5
  9
$AUNITS
 70
     0
  9
$AUPREC
 70
     0
  9
$MENU
  1
.
  9
$ELEVATION
 40
0.0
  9
$PELEVATION
 40
0.0
  9
$THICKNESS
 40
0.0
  9
$LIMCHECK
 70
     0
  9
$CHAMFERA
 40
0.5
  9
$CHAMFERB
 40
0.5
  9
$CHAMFERC
 40
1.0
  9
$CHAMFERD
 40
0.0
  9
$SKPOLY
 70
     0
  9
$TDCREATE
 40
2456238.38510706
  9
$TDUCREATE
 40
2456238.01010706
  9
$TDUPDATE
 40
2456238.385107072
  9
$TDUUPDATE
 40
2456238.010107072
  9
$TDINDWG
 40
0.0000000116
  9
$TDUSRTIMER
 40
0.0000000116
  9
$USRTIMER
 70
     1
  9
$ANGBASE
 50
0.0
  9
$ANGDIR
 70
     0
  9
$PDMODE
 70
     0
  9
$PDSIZE
 40
0.0
  9
$PLINEWID
 40
0.0
  9
$SPLFRAME
 70
     0
  9
$SPLINETYPE
 70
     6
  9
$SPLINESEGS
 70
     8
  9
$HANDSEED
  5
12A
  9
$SURFTAB1
 70
     6
  9
$SURFTAB2
 70
     6
  9
$SURFTYPE
 70
     6
  9
$SURFU
 70
     6
  9
$SURFV
 70
     6
  9
$UCSBASE
  2

  9
$UCSNAME
  2

  9
$UCSORG
 10
0.0
 20
0.0
 30
0.0
  9
$UCSXDIR
 10
1.0
 20
0.0
 30
0.0
  9
$UCSYDIR
 10
0.0
 20
1.0
 30
0.0
  9
$UCSORTHOREF
  2

  9
$UCSORTHOVIEW
 70
     0
  9
$UCSORGTOP
 10
0.0
 20
0.0
 30
0.0
  9
$UCSORGBOTTOM
 10
0.0
 20
0.0
 30
0.0
  9
$UCSORGLEFT
 10
0.0
 20
0.0
 30
0.0
  9
$UCSORGRIGHT
 10
0.0
 20
0.0
 30
0.0
  9
$UCSORGFRONT
 10
0.0
 20
0.0
 30
0.0
  9
$UCSORGBACK
 10
0.0
 20
0.0
 30
0.0
  9
$PUCSBASE
  2

  9
$PUCSNAME
  2

  9
$PUCSORG
 10
0.0
 20
0.0
 30
0.0
  9
$PUCSXDIR
 10
1.0
 20
0.0
 30
0.0
  9
$PUCSYDIR
 10
0.0
 20
1.0
 30
0.0
  9
$PUCSORTHOREF
  2

  9
$PUCSORTHOVIEW
 70
     0
  9
$PUCSORGTOP
 10
0.0
 20
0.0
 30
0.0
  9
$PUCSORGBOTTOM
 10
0.0
 20
0.0
 30
0.0
  9
$PUCSORGLEFT
 10
0.0
 20
0.0
 30
0.0
  9
$PUCSORGRIGHT
 10
0.0
 20
0.0
 30
0.0
  9
$PUCSORGFRONT
 10
0.0
 20
0.0
 30
0.0
  9
$PUCSORGBACK
 10
0.0
 20
0.0
 30
0.0
  9
$USERI1
 70
     0
  9
$USERI2
 70
     0
  9
$USERI3
 70
     0
  9
$USERI4
 70
     0
  9
$USERI5
 70
     0
  9
$USERR1
 40
0.0
  9
$USERR2
 40
0.0
  9
$USERR3
 40
0.0
  9
$USERR4
 40
0.0
  9
$USERR5
 40
0.0
  9
$WORLDVIEW
 70
     1
  9
$SHADEDGE
 70
     3
  9
$SHADEDIF
 70
    70
  9
$TILEMODE
 70
     1
  9
$MAXACTVP
 70
    64
  9
$PINSBASE
 10
0.0
 20
0.0
 30
0.0
  9
$PLIMCHECK
 70
     0
  9
$PEXTMIN
 10
1.000000000000000E+20
 20
1.000000000000000E+20
 30
1.000000000000000E+20
  9
$PEXTMAX
 10
-1.000000000000000E+20
 20
-1.000000000000000E+20
 30
-1.000000000000000E+20
  9
$PLIMMIN
 10
0.0
 20
0.0
  9
$PLIMMAX
 10
12.0
 20
9.0
  9
$UNITMODE
 70
     0
  9
$VISRETAIN
 70
     1
  9
$PLINEGEN
 70
     0
  9
$PSLTSCALE
 70
     1
  9
$TREEDEPTH
 70
  3020
  9
$CMLSTYLE
  2
Standard
  9
$CMLJUST
 70
     0
  9
$CMLSCALE
 40
1.0
  9
$PROXYGRAPHICS
 70
     1
  9
$MEASUREMENT
 70
     0
  9
$CELWEIGHT
370
    -1
  9
$ENDCAPS
280
     0
  9
$JOINSTYLE
280
     0
  9
$LWDISPLAY
290
     0
  9
$INSUNITS
 70
     4
  9
$HYPERLINKBASE
  1

  9
$STYLESHEET
  1

  9
$XEDIT
290
     1
  9
$CEPSNTYPE
380
     0
  9
$PSTYLEMODE
290
     1
  9
$FINGERPRINTGUID
  2
{F79D7275-8269-4CB0-9B39-A07EE2F46F01}
  9
$VERSIONGUID
  2
{FAEB1C32-E019-11D5-929B-00C0DF256EC4}
  9
$EXTNAMES
290
     1
  9
$PSVPSCALE
 40
0.0
  9
$OLESTARTUP
290
     0
  0
ENDSEC
  0
SECTION
  2
CLASSES
  0
CLASS
  1
ACDBDICTIONARYWDFLT
  2
AcDbDictionaryWithDefault
  3
ObjectDBX Classes
 90
        0
280
     0
281
     0
  0
CLASS
  1
VISUALSTYLE
  2
AcDbVisualStyle
  3
ObjectDBX Classes
 90
     4095
280
     0
281
     0
  0
CLASS
  1
MATERIAL
  2
AcDbMaterial
  3
ObjectDBX Classes
 90
     1153
280
     0
281
     0
  0
CLASS
  1
SCALE
  2
AcDbScale
  3
ObjectDBX Classes
 90
     1153
280
     0
281
     0
  0
CLASS
  1
DICTIONARYVAR
  2
AcDbDictionaryVar
  3
ObjectDBX Classes
 90
        0
280
     0
281
     0
  0
CLASS
  1
ACDBPLACEHOLDER
  2
AcDbPlaceHolder
  3
ObjectDBX Classes
 90
        0
280
     0
281
     0
  0
CLASS
  1
LAYOUT
  2
AcDbLayout
  3
ObjectDBX Classes
 90
        0
280
     0
281
     0
  0
ENDSEC
  0
SECTION
  2
TABLES
  0
TABLE
  2
VPORT
  5
8
330
0
100
AcDbSymbolTable
 70
     1
  0
VPORT
  5
29
330
8
100
AcDbSymbolTableRecord
100
AcDbViewportTableRecord
  2
*Active
 70
     0
 10
0.0
 20
0.0
 11
1.0
 21
1.0
 12
105.4625757417096
 22
183.7975418456052
 13
0.0
 23
0.0
 14
0.5
 24
0.5
 15
0.5
 25
0.5
 16
0.0
 26
0.0
 36
1.0
 17
0.0
 27
0.0
 37
0.0
 40
168.6286801536571
 41
0.8042212686624582
 42
50.0
 43
0.0
 44
0.0
 50
0.0
 51
0.0
 71
     0
 72
  1000
 73
     1
 74
     3
 75
     0
 76
     0
 77
     0
 78
     0
281
     0
 65
     1
110
0.0
120
0.0
130
0.0
111
1.0
121
0.0
131
0.0
112
0.0
122
1.0
132
0.0
 79
     0
146
0.0
  0
ENDTAB
  0
TABLE
  2
LTYPE
  5
5
330
0
100
AcDbSymbolTable
 70
     3
  0
LTYPE
  5
14
330
5
100
AcDbSymbolTableRecord
100
AcDbLinetypeTableRecord
  2
ByBlock
 70
     0
  3

 72
    65
 73
     0
 40
0.0
  0
LTYPE
  5
15
330
5
100
AcDbSymbolTableRecord
100
AcDbLinetypeTableRecord
  2
ByLayer
 70
     0
  3

 72
    65
 73
     0
 40
0.0
  0
LTYPE
  5
16
330
5
100
AcDbSymbolTableRecord
100
AcDbLinetypeTableRecord
  2
Continuous
 70
     0
  3
Solid line
 72
    65
 73
     0
 40
0.0
  0
LTYPE
  5
3F
330
5
100
AcDbSymbolTableRecord
100
AcDbLinetypeTableRecord
  2
chain
 70
     0
  3
_____ __ _____ __ _____
 72
    65
 73
     4
 40
18.5
 49
12.0
 74
     4
 75
     0
340
0
 46
1.0
 50
0.0
 44
0.0
 45
0.0
 49
-1.5
 74
     4
 75
     0
340
0
 46
1.0
 50
0.0
 44
0.0
 45
0.0
 49
3.5
 74
     4
 75
     0
340
0
 46
1.0
 50
0.0
 44
0.0
 45
0.0
 49
-1.5
 74
     4
 75
     0
340
0
 46
1.0
 50
0.0
 44
0.0
 45
0.0
  0
LTYPE
  5
40
330
5
100
AcDbSymbolTableRecord
100
AcDbLinetypeTableRecord
  2
dashed dotted
 70
     0
  3
_____  _  _____  _  _____
 72
    65
 73
     4
 40
9.3
 49
6.0
 74
     4
 75
     0
340
0
 46
1.0
 50
0.0
 44
0.0
 45
0.0
 49
-1.5
 74
     4
 75
     0
340
0
 46
1.0
 50
0.0
 44
0.0
 45
0.0
 49
0.25
 74
     4
 75
     0
340
0
 46
1.0
 50
0.0
 44
0.0
 45
0.0
 49
-1.5
 74
     4
 75
     0
340
0
 46
1.0
 50
0.0
 44
0.0
 45
0.0
  0
ENDTAB
  0
TABLE
  2
LAYER
  5
2
330
0
100
AcDbSymbolTable
 70
     7
  0
LAYER
  5
10
330
2
100
AcDbSymbolTableRecord
100
AcDbLayerTableRecord
  2
0
 70
     0
 62
     7
  6
Continuous
370
    -3
390
F
  0
LAYER
  5
41
330
2
100
AcDbSymbolTableRecord
100
AcDbLayerTableRecord
  2
D-TTL-TXT
 70
     0
 62
     7
  6
Continuous
370
    -3
390
F
  0
LAYER
  5
42
330
2
100
AcDbSymbolTableRecord
100
AcDbLayerTableRecord
  2
D-BMK
 70
     0
 62
     5
  6
dashed dotted
370
    -3
390
F
  0
LAYER
  5
43
330
2
100
AcDbSymbolTableRecord
100
AcDbLayerTableRecord
  2
D-STR
 70
     0
 62
     7
  6
Continuous
370
    -3
390
F
  0
LAYER
  5
44
330
2
100
AcDbSymbolTableRecord
100
AcDbLayerTableRecord
  2
D-STR-STR3
 70
     0
 62
     1
  6
Continuous
370
    -3
390
F
  0
LAYER
  5
45
330
2
100
AcDbSymbolTableRecord
100
AcDbLayerTableRecord
  2
D-STR-DIM
 70
     0
 62
     5
  6
Continuous
370
    -3
390
F
  0
LAYER
  5
A9
330
2
100
AcDbSymbolTableRecord
100
AcDbLayerTableRecord
  2
Defpoints
 70
     0
 62
     7
  6
Continuous
290
     0
370
    -3
390
F
  0
ENDTAB
  0
TABLE
  2
STYLE
  5
3
330
0
100
AcDbSymbolTable
 70
     4
  0
STYLE
  5
11
330
3
100
AcDbSymbolTableRecord
100
AcDbTextStyleTableRecord
  2
Standard
 70
     0
 40
0.0
 41
1.0
 50
0.0
 71
     0
 42
0.2
  3
txt
  4

  0
STYLE
  5
46
330
3
100
AcDbSymbolTableRecord
100
AcDbTextStyleTableRecord
  2
STANDARD-FC
 70
     0
 40
0.0
 41
1.0
 50
0.0
 71
     0
 42
0.2
  3
txt
  4
bigfont
  0
STYLE
  5
47
330
3
100
AcDbSymbolTableRecord
100
AcDbTextStyleTableRecord
  2
V-ＭＳ ゴシック
 70
     0
 40
0.0
 41
1.0
 50
0.0
 71
     0
 42
0.2
  3
@MS Gothic.ttf
  4

1001
ACAD
1000
@MS Gothic
1071
    32817
  0
STYLE
  5
48
330
3
100
AcDbSymbolTableRecord
100
AcDbTextStyleTableRecord
  2
ＭＳ ゴシック
 70
     0
 40
0.0
 41
1.0
 50
0.0
 71
     0
 42
0.2
  3
msgothic.ttc
  4

1001
ACAD
1000
MS Gothic
1071
    32817
  0
ENDTAB
  0
TABLE
  2
VIEW
  5
6
330
0
100
AcDbSymbolTable
 70
     0
  0
ENDTAB
  0
TABLE
  2
UCS
  5
7
330
0
100
AcDbSymbolTable
 70
     0
  0
ENDTAB
  0
TABLE
  2
APPID
  5
9
330
0
100
AcDbSymbolTable
 70
     1
  0
APPID
  5
12
330
9
100
AcDbSymbolTableRecord
100
AcDbRegAppTableRecord
  2
ACAD
 70
     0
  0
ENDTAB
  0
TABLE
  2
DIMSTYLE
  5
A
330
0
100
AcDbSymbolTable
 70
     1
100
AcDbDimStyleTable
  0
DIMSTYLE
105
27
102
{ACAD_REACTORS
330
A8
330
B6
330
CC
102
}
330
A
100
AcDbSymbolTableRecord
100
AcDbDimStyleTableRecord
  2
Standard
 70
     0
178
     0
340
11
  0
ENDTAB
  0
TABLE
  2
BLOCK_RECORD
  5
1
330
0
100
AcDbSymbolTable
 70
     4
  0
BLOCK_RECORD
  5
1F
330
1
100
AcDbSymbolTableRecord
100
AcDbBlockTableRecord
  2
*Model_Space
340
22
  0
BLOCK_RECORD
  5
1B
330
1
100
AcDbSymbolTableRecord
100
AcDbBlockTableRecord
  2
*Paper_Space
340
1E
  0
BLOCK_RECORD
  5
23
330
1
100
AcDbSymbolTableRecord
100
AcDbBlockTableRecord
  2
*Paper_Space0
340
26
  0
BLOCK_RECORD
  5
AA
330
1
100
AcDbSymbolTableRecord
100
AcDbBlockTableRecord
  2
*D1
340
0
  0
BLOCK_RECORD
  5
B7
330
1
100
AcDbSymbolTableRecord
100
AcDbBlockTableRecord
  2
*D2
340
0
  0
BLOCK_RECORD
  5
CD
330
1
100
AcDbSymbolTableRecord
100
AcDbBlockTableRecord
  2
*D3
340
0
  0
ENDTAB
  0
ENDSEC
  0
SECTION
  2
BLOCKS
  0
BLOCK
  5
20
330
1F
100
AcDbEntity
  8
0
100
AcDbBlockBegin
  2
*Model_Space
 70
     0
 10
0.0
 20
0.0
 30
0.0
  3
*Model_Space
  1

  0
ENDBLK
  5
21
330
1F
100
AcDbEntity
  8
0
100
AcDbBlockEnd
  0
BLOCK
  5
1C
330
1B
100
AcDbEntity
 67
     1
  8
0
100
AcDbBlockBegin
  2
*Paper_Space
 70
     0
 10
0.0
 20
0.0
 30
0.0
  3
*Paper_Space
  1

  0
ENDBLK
  5
1D
330
1B
100
AcDbEntity
 67
     1
  8
0
100
AcDbBlockEnd
  0
BLOCK
  5
24
330
23
100
AcDbEntity
  8
0
100
AcDbBlockBegin
  2
*Paper_Space0
 70
     0
 10
0.0
 20
0.0
 30
0.0
  3
*Paper_Space0
  1

  0
ENDBLK
  5
25
330
23
100
AcDbEntity
  8
0
100
AcDbBlockEnd
  0
BLOCK
  5
B4
330
AA
100
AcDbEntity
  8
0
100
AcDbBlockBegin
  2
*D1
 70
     1
 10
0.0
 20
0.0
 30
0.0
  3
*D1
  1

  0
LINE
  5
AB
330
AA
100
AcDbEntity
  8
D-STR-DIM
  6
Continuous
 62
     5
370
    -2
100
AcDbLine
 10
102.8563367892096
 20
194.6230435444743
 30
0.0
 11
97.90658932170962
 21
189.6732960769743
 31
0.0
  0
LINE
  5
AC
330
AA
100
AcDbEntity
  8
D-STR-DIM
  6
Continuous
 62
     5
370
    -2
100
AcDbLine
 10
110.3563367892096
 20
187.1230435444743
 30
0.0
 11
105.4065893217096
 21
182.1732960769743
 31
0.0
  0
LINE
  5
AD
330
AA
100
AcDbEntity
  8
D-STR-DIM
  6
Continuous
 62
     5
370
    -2
100
AcDbLine
 10
99.32080288289615
 20
189.6732960757878
 30
0.0
 11
105.4065893205231
 21
183.5875096381608
 31
0.0
  0
SOLID
  5
AE
330
AA
100
AcDbEntity
  8
D-STR-DIM
 62
     5
100
AcDbTrace
 10
99.4386540130939
 20
189.7911472059856
 30
0.0
 11
99.2029517526984
 21
189.5554449455901
 31
0.0
 12
98.61369610170962
 22
190.3804028569743
 32
0.0
 13
98.61369610170962
 23
190.3804028569743
 33
0.0
  0
SOLID
  5
AF
330
AA
100
AcDbEntity
  8
D-STR-DIM
 62
     5
100
AcDbTrace
 10
105.2887381903253
 20
183.4696585079631
 30
0.0
 11
105.5244404507208
 21
183.7053607683586
 31
0.0
 12
106.1136961017096
 22
182.8804028569743
 32
0.0
 13
106.1136961017096
 23
182.8804028569743
 33
0.0
  0
MTEXT
  5
B0
330
AA
100
AcDbEntity
  8
D-STR-DIM
 62
     5
370
    13
100
AcDbMText
 10
103.9546863600361
 20
188.2213931153007
 30
0.0
 40
2.777777777777778
 41
0.0
 71
     5
 72
     1
  1
\A1;3.0m以上
  7
ＭＳ ゴシック
 11
0.7071067811865348
 21
-0.7071067811865602
 31
0.0
 73
     1
 44
1.0
1001
ACAD
1000
ACAD_MTEXT_DEFINED_HEIGHT_BEGIN
1070
    46
1040
0.2
1000
ACAD_MTEXT_DEFINED_HEIGHT_END
  0
POINT
  5
B1
330
AA
100
AcDbEntity
  8
Defpoints
 62
     0
100
AcDbPoint
 10
103.5634435704596
 20
195.3301503257243
 30
0.0
  0
POINT
  5
B2
330
AA
100
AcDbEntity
  8
Defpoints
 62
     0
100
AcDbPoint
 10
111.0634435704596
 20
187.8301503257243
 30
0.0
  0
POINT
  5
B3
330
AA
100
AcDbEntity
  8
Defpoints
 62
     0
100
AcDbPoint
 10
106.1136961017096
 20
182.8804028569743
 30
0.0
  0
ENDBLK
  5
B5
330
AA
100
AcDbEntity
  8
0
100
AcDbBlockEnd
  0
BLOCK
  5
C1
330
B7
100
AcDbEntity
  8
0
100
AcDbBlockBegin
  2
*D2
 70
     1
 10
0.0
 20
0.0
 30
0.0
  3
*D2
  1

  0
LINE
  5
B8
330
B7
100
AcDbEntity
  8
D-STR-DIM
  6
Continuous
 62
     5
370
    -2
100
AcDbLine
 10
124.2705503529596
 20
189.6230435432243
 30
0.0
 11
129.2202978204596
 21
184.6732960757243
 31
0.0
  0
LINE
  5
B9
330
B7
100
AcDbEntity
  8
D-STR-DIM
  6
Continuous
 62
     5
370
    -2
100
AcDbLine
 10
131.7705503529596
 20
197.1230435432243
 30
0.0
 11
136.7202978204596
 21
192.1732960757242
 31
0.0
  0
LINE
  5
BA
330
B7
100
AcDbEntity
  8
D-STR-DIM
  6
Continuous
 62
     5
370
    -2
100
AcDbLine
 10
129.2202978216461
 20
186.0875096369108
 30
0.0
 11
135.3060842592731
 21
192.1732960745377
 31
0.0
  0
SOLID
  5
BB
330
B7
100
AcDbEntity
  8
D-STR-DIM
 62
     5
100
AcDbTrace
 10
129.1024466914484
 20
186.2053607671085
 30
0.0
 11
129.3381489518439
 21
185.969658506713
 31
0.0
 12
128.5131910404596
 22
185.3804028557243
 32
0.0
 13
128.5131910404596
 23
185.3804028557243
 33
0.0
  0
SOLID
  5
BC
330
B7
100
AcDbEntity
  8
D-STR-DIM
 62
     5
100
AcDbTrace
 10
135.4239353894708
 20
192.05544494434
 30
0.0
 11
135.1882331290753
 21
192.2911472047355
 31
0.0
 12
136.0131910404596
 22
192.8804028557242
 32
0.0
 13
136.0131910404596
 23
192.8804028557242
 33
0.0
  0
MTEXT
  5
BD
330
B7
100
AcDbEntity
  8
D-STR-DIM
 62
     5
370
    13
100
AcDbMText
 10
130.6722007808831
 20
190.7213931153007
 30
0.0
 40
2.777777777777778
 41
0.0
 71
     5
 72
     1
  1
\A1;3.0m以上
  7
ＭＳ ゴシック
 11
0.7071067811865476
 21
0.7071067811865475
 31
0.0
 73
     1
 44
1.0
1001
ACAD
1000
ACAD_MTEXT_DEFINED_HEIGHT_BEGIN
1070
    46
1040
0.2
1000
ACAD_MTEXT_DEFINED_HEIGHT_END
  0
POINT
  5
BE
330
B7
100
AcDbEntity
  8
Defpoints
 62
     0
100
AcDbPoint
 10
123.5634435704596
 20
190.3301503257243
 30
0.0
  0
POINT
  5
BF
330
B7
100
AcDbEntity
  8
Defpoints
 62
     0
100
AcDbPoint
 10
131.0634435704596
 20
197.8301503257243
 30
0.0
  0
POINT
  5
C0
330
B7
100
AcDbEntity
  8
Defpoints
 62
     0
100
AcDbPoint
 10
136.0131910404596
 20
192.8804028557242
 30
0.0
  0
ENDBLK
  5
C2
330
B7
100
AcDbEntity
  8
0
100
AcDbBlockEnd
  0
BLOCK
  5
D7
330
CD
100
AcDbEntity
  8
0
100
AcDbBlockBegin
  2
*D3
 70
     1
 10
0.0
 20
0.0
 30
0.0
  3
*D3
  1

  0
LINE
  5
CE
330
CD
100
AcDbEntity
  8
D-STR-DIM
  6
Continuous
 62
     5
370
    -2
100
AcDbLine
 10
100.9537465429596
 20
121.8435309057243
 30
0.0
 11
104.4892804479596
 21
125.3790648107242
 31
0.0
  0
LINE
  5
CF
330
CD
100
AcDbEntity
  8
D-STR-DIM
  6
Continuous
 62
     5
370
    -2
100
AcDbLine
 10
108.4537465429596
 20
114.3435309057243
 30
0.0
 11
111.9892804479596
 21
117.8790648107242
 31
0.0
  0
LINE
  5
D0
330
CD
100
AcDbEntity
  8
D-STR-DIM
  6
Continuous
 62
     5
370
    -2
100
AcDbLine
 10
104.4892804491461
 20
123.9648512495377
 30
0.0
 11
110.5750668867731
 21
117.8790648119108
 31
0.0
  0
SOLID
  5
D1
330
CD
100
AcDbEntity
  8
D-STR-DIM
 62
     5
100
AcDbTrace
 10
104.6071315793439
 20
124.0827023797355
 30
0.0
 11
104.3714293189484
 21
123.84700011934
 31
0.0
 12
103.7821736679596
 22
124.6719580307243
 32
0.0
 13
103.7821736679596
 23
124.6719580307243
 33
0.0
  0
SOLID
  5
D2
330
CD
100
AcDbEntity
  8
D-STR-DIM
 62
     5
100
AcDbTrace
 10
110.4572157565753
 20
117.761213681713
 30
0.0
 11
110.6929180169708
 21
117.9969159421085
 31
0.0
 12
111.2821736679596
 22
117.1719580307243
 32
0.0
 13
111.2821736679596
 23
117.1719580307243
 33
0.0
  0
MTEXT
  5
D3
330
CD
100
AcDbEntity
  8
D-STR-DIM
 62
     5
370
    13
100
AcDbMText
 10
109.1231639250361
 20
122.5129482878007
 30
0.0
 40
2.777777777777778
 41
0.0
 71
     5
 72
     1
  1
\A1;3.0m以上
  7
ＭＳ ゴシック
 11
0.7071067811865474
 21
-0.7071067811865477
 31
0.0
 73
     1
 44
1.0
1001
ACAD
1000
ACAD_MTEXT_DEFINED_HEIGHT_BEGIN
1070
    46
1040
0.2
1000
ACAD_MTEXT_DEFINED_HEIGHT_END
  0
POINT
  5
D4
330
CD
100
AcDbEntity
  8
Defpoints
 62
     0
100
AcDbPoint
 10
100.2466397604596
 20
121.1364241232243
 30
0.0
  0
POINT
  5
D5
330
CD
100
AcDbEntity
  8
Defpoints
 62
     0
100
AcDbPoint
 10
107.7466397604596
 20
113.6364241232243
 30
0.0
  0
POINT
  5
D6
330
CD
100
AcDbEntity
  8
Defpoints
 62
     0
100
AcDbPoint
 10
111.2821736679596
 20
117.1719580307243
 30
0.0
  0
ENDBLK
  5
D8
330
CD
100
AcDbEntity
  8
0
100
AcDbBlockEnd
  0
ENDSEC
  0
SECTION
  2
ENTITIES
  0
LINE
  5
49
330
1F
100
AcDbEntity
  8
D-BMK
  6
dashed dotted
 62
     5
370
    13
100
AcDbLine
 10
171.9404047054596
 20
204.0801503257243
 30
0.0
 11
62.68648243795961
 21
204.0801503257243
 31
0.0
  0
LINE
  5
4A
330
1F
100
AcDbEntity
  8
D-BMK
  6
dashed dotted
 62
     5
370
    13
100
AcDbLine
 10
117.3134435704596
 20
249.2363976682242
 30
0.0
 11
117.3134435704596
 21
170.1536880157242
 31
0.0
  0
LINE
  5
4B
330
1F
100
AcDbEntity
  8
D-STR
  6
Continuous
 62
     7
370
    50
100
AcDbLine
 10
97.31344357045961
 20
212.8301503257243
 30
0.0
 11
62.68648243795961
 21
212.8301503257243
 31
0.0
  0
LINE
  5
4C
330
1F
100
AcDbEntity
  8
D-STR
  6
Continuous
 62
     7
370
    50
100
AcDbLine
 10
108.5634435704596
 20
249.2363976682242
 30
0.0
 11
108.5634435704596
 21
224.0801503257242
 31
0.0
  0
ARC
  5
4D
330
1F
100
AcDbEntity
  8
D-STR
  6
Continuous
 62
     7
370
    50
100
AcDbCircle
 10
97.31344357045961
 20
224.0801503257243
 30
0.0
 40
11.25
100
AcDbArc
 50
270.0
 51
0.0
  0
LINE
  5
4E
330
1F
100
AcDbEntity
  8
D-STR
  6
Continuous
 62
     7
370
    50
100
AcDbLine
 10
126.0634435704596
 20
249.2363976682242
 30
0.0
 11
126.0634435704596
 21
224.0801503257242
 31
0.0
  0
LINE
  5
4F
330
1F
100
AcDbEntity
  8
D-STR
  6
Continuous
 62
     7
370
    50
100
AcDbLine
 10
171.9404047054596
 20
212.8301503257243
 30
0.0
 11
137.3134435704596
 21
212.8301503257243
 31
0.0
  0
ARC
  5
50
330
1F
100
AcDbEntity
  8
D-STR
  6
Continuous
 62
     7
370
    50
100
AcDbCircle
 10
137.3134435704596
 20
224.0801503257243
 30
0.0
 40
11.25
100
AcDbArc
 50
180.0
 51
270.0
  0
LINE
  5
51
330
1F
100
AcDbEntity
  8
D-STR-STR3
  6
Continuous
 62
     1
370
    25
100
AcDbLine
 10
97.93844357045961
 20
210.9551503257243
 30
0.0
 11
62.68648243795961
 21
210.9551503257243
 31
0.0
  0
LINE
  5
52
330
1F
100
AcDbEntity
  8
D-STR-STR3
  6
Continuous
 62
     1
370
    25
100
AcDbLine
 10
110.4384435704596
 20
249.2363976682242
 30
0.0
 11
110.4384435704596
 21
223.4551503257242
 31
0.0
  0
ARC
  5
53
330
1F
100
AcDbEntity
  8
D-STR-STR3
  6
Continuous
 62
     1
370
    25
100
AcDbCircle
 10
97.93844357045961
 20
223.4551503257243
 30
0.0
 40
12.5
100
AcDbArc
 50
270.0
 51
0.0
  0
LINE
  5
54
330
1F
100
AcDbEntity
  8
D-STR-STR3
  6
Continuous
 62
     1
370
    25
100
AcDbLine
 10
124.1884435704596
 20
249.2363976682242
 30
0.0
 11
124.1884435704596
 21
223.4551503257242
 31
0.0
  0
LINE
  5
55
330
1F
100
AcDbEntity
  8
D-STR-STR3
  6
Continuous
 62
     1
370
    25
100
AcDbLine
 10
171.9404047054596
 20
210.9551503257243
 30
0.0
 11
136.6884435704596
 21
210.9551503257243
 31
0.0
  0
ARC
  5
56
330
1F
100
AcDbEntity
  8
D-STR-STR3
  6
Continuous
 62
     1
370
    25
100
AcDbCircle
 10
136.6884435704596
 20
223.4551503257243
 30
0.0
 40
12.5
100
AcDbArc
 50
180.0
 51
270.0
  0
TEXT
  5
57
330
1F
100
AcDbEntity
  8
D-TTL-TXT
  6
Continuous
 62
     7
370
    13
100
AcDbText
 10
54.7396794754596
 20
154.0280552585814
 30
0.0
 40
3.968253968253968
  1
折れ曲がり道路の隅切り長の標準値
 41
0.8
  7
ＭＳ ゴシック
 11
54.7396794754596
 21
153.3031668657243
 31
0.0
100
AcDbText
 73
     1
  0
LINE
  5
58
330
1F
100
AcDbEntity
  8
D-BMK
  6
dashed dotted
 62
     5
370
    13
100
AcDbLine
 10
93.9966397604596
 20
145.2716668882242
 30
0.0
 11
93.9966397604596
 21
107.3864241232243
 31
0.0
  0
LINE
  5
59
330
1F
100
AcDbEntity
  8
D-BMK
  6
dashed dotted
 62
     5
370
    13
100
AcDbLine
 10
138.3750513479596
 20
107.3864241232243
 30
0.0
 11
93.9966397604596
 21
107.3864241232243
 31
0.0
  0
LINE
  5
5A
330
1F
100
AcDbEntity
  8
D-STR-STR3
  6
Continuous
 62
     1
370
    25
100
AcDbLine
 10
88.9966397604596
 20
145.2716668882242
 30
0.0
 11
88.9966397604596
 21
102.3864241232243
 31
0.0
  0
LINE
  5
5B
330
1F
100
AcDbEntity
  8
D-STR-STR3
  6
Continuous
 62
     1
370
    25
100
AcDbLine
 10
138.3750513479596
 20
102.3864241232243
 30
0.0
 11
88.9966397604596
 21
102.3864241232243
 31
0.0
  0
LINE
  5
5C
330
1F
100
AcDbEntity
  8
D-STR
  6
Continuous
 62
     7
370
    50
100
AcDbLine
 10
87.7466397604596
 20
145.2716668882242
 30
0.0
 11
87.7466397604596
 21
101.1364241232243
 31
0.0
  0
LINE
  5
5D
330
1F
100
AcDbEntity
  8
D-STR
  6
Continuous
 62
     7
370
    50
100
AcDbLine
 10
138.3750513479596
 20
101.1364241232243
 30
0.0
 11
87.7466397604596
 21
101.1364241232243
 31
0.0
  0
LINE
  5
5E
330
1F
100
AcDbEntity
  8
D-STR-STR3
  6
Continuous
 62
     1
370
    25
100
AcDbLine
 10
112.3134435704596
 20
189.7051503257243
 30
0.0
 11
112.3134435704596
 21
170.1536880157242
 31
0.0
  0
LINE
  5
5F
330
1F
100
AcDbEntity
  8
D-STR-STR3
  6
Continuous
 62
     1
370
    25
100
AcDbLine
 10
104.8134435704596
 20
197.2051503257243
 30
0.0
 11
62.6864824379596
 21
197.2051503257243
 31
0.0
  0
ARC
  5
60
330
1F
100
AcDbEntity
  8
D-STR-STR3
  6
Continuous
 62
     1
370
    25
100
AcDbCircle
 10
104.8134435704596
 20
189.7051503257243
 30
0.0
 40
7.5
100
AcDbArc
 50
0.0
 51
90.0
  0
TEXT
  5
61
330
1F
100
AcDbEntity
  8
D-TTL-TXT
  6
Continuous
 62
     7
370
    13
100
AcDbText
 10
38.9847467779596
 20
262.0287860560814
 30
0.0
 40
3.968253968253968
  1
別図6  交差点隅切り形状　（第９条第１項関係）
 41
0.8
  7
ＭＳ ゴシック
 11
38.9847467779596
 21
261.3038976632242
 31
0.0
100
AcDbText
 73
     1
  0
LINE
  5
62
330
1F
100
AcDbEntity
  8
D-STR
  6
Continuous
 62
     7
370
    50
100
AcDbLine
 10
94.81344357045961
 20
219.0801503257243
 30
0.0
 11
62.68648243795961
 21
219.0801503257243
 31
0.0
  0
LINE
  5
63
330
1F
100
AcDbEntity
  8
D-STR
  6
Continuous
 62
     7
370
    50
100
AcDbLine
 10
102.3134435704596
 20
249.2363976682242
 30
0.0
 11
102.3134435704596
 21
226.5801503257242
 31
0.0
  0
LINE
  5
64
330
1F
100
AcDbEntity
  8
D-STR
  6
Continuous
 62
     7
370
    50
100
AcDbLine
 10
94.81344357045961
 20
219.0801503257243
 30
0.0
 11
102.3134435704596
 21
226.5801503257243
 31
0.0
  0
LINE
  5
65
330
1F
100
AcDbEntity
  8
D-STR
  6
Continuous
 62
     7
370
    50
100
AcDbLine
 10
126.5634435704596
 20
249.2363976682242
 30
0.0
 11
126.5634435704596
 21
226.5801503257242
 31
0.0
  0
LINE
  5
66
330
1F
100
AcDbEntity
  8
D-STR
  6
Continuous
 62
     7
370
    50
100
AcDbLine
 10
134.0634435704596
 20
219.0801503257243
 30
0.0
 11
171.9404047054596
 21
219.0801503257243
 31
0.0
  0
LINE
  5
67
330
1F
100
AcDbEntity
  8
D-STR
  6
Continuous
 62
     7
370
    50
100
AcDbLine
 10
126.5634435704596
 20
226.5801503257243
 30
0.0
 11
134.0634435704596
 21
219.0801503257243
 31
0.0
  0
LINE
  5
68
330
1F
100
AcDbEntity
  8
D-STR
  6
Continuous
 62
     7
370
    50
100
AcDbLine
 10
103.5634435704596
 20
195.3301503257243
 30
0.0
 11
62.6864824379596
 21
195.3301503257243
 31
0.0
  0
LINE
  5
69
330
1F
100
AcDbEntity
  8
D-STR
  6
Continuous
 62
     7
370
    50
100
AcDbLine
 10
111.0634435704596
 20
187.8301503257243
 30
0.0
 11
111.0634435704596
 21
170.1536880157242
 31
0.0
  0
LINE
  5
6A
330
1F
100
AcDbEntity
  8
D-STR
  6
Continuous
 62
     7
370
    50
100
AcDbLine
 10
103.5634435704596
 20
195.3301503257243
 30
0.0
 11
111.0634435704596
 21
187.8301503257243
 31
0.0
  0
LINE
  5
6B
330
1F
100
AcDbEntity
  8
D-STR
  6
Continuous
 62
     7
370
    50
100
AcDbLine
 10
171.9404047054596
 20
197.8301503257243
 30
0.0
 11
131.0634435704596
 21
197.8301503257243
 31
0.0
  0
LINE
  5
6C
330
1F
100
AcDbEntity
  8
D-STR
  6
Continuous
 62
     7
370
    50
100
AcDbLine
 10
123.5634435704596
 20
190.3301503257243
 30
0.0
 11
123.5634435704596
 21
170.1536880157242
 31
0.0
  0
LINE
  5
6D
330
1F
100
AcDbEntity
  8
D-STR
  6
Continuous
 62
     7
370
    50
100
AcDbLine
 10
131.0634435704596
 20
197.8301503257243
 30
0.0
 11
123.5634435704596
 21
190.3301503257243
 31
0.0
  0
LINE
  5
6E
330
1F
100
AcDbEntity
  8
D-STR-DIM
  6
Continuous
 62
     5
370
    13
100
AcDbLine
 10
91.98501644664613
 20
223.3227910119108
 30
0.0
 11
98.07080288427306
 21
229.4085774495377
 31
0.0
  0
LINE
  5
6F
330
1F
100
AcDbEntity
  8
D-STR-DIM
  6
Continuous
 62
     5
370
    13
100
AcDbLine
 10
98.7779096654596
 20
230.1156842307242
 30
0.0
 11
98.7779096654596
 21
230.1156842307242
 31
0.0
  0
LINE
  5
70
330
1F
100
AcDbEntity
  8
D-STR-DIM
  6
Continuous
 62
     5
370
    13
100
AcDbLine
 10
91.2779096654596
 20
222.6156842307242
 30
0.0
 11
92.10286757684388
 21
223.204939881713
 31
0.0
  0
LINE
  5
71
330
1F
100
AcDbEntity
  8
D-STR-DIM
  6
Continuous
 62
     5
370
    13
100
AcDbLine
 10
91.2779096654596
 20
222.6156842307242
 30
0.0
 11
91.86716531644838
 21
223.4406421421085
 31
0.0
  0
LINE
  5
72
330
1F
100
AcDbEntity
  8
D-STR-DIM
  6
Continuous
 62
     5
370
    13
100
AcDbLine
 10
92.10286757684388
 20
223.204939881713
 30
0.0
 11
91.86716531644838
 21
223.4406421421085
 31
0.0
  0
LINE
  5
73
330
1F
100
AcDbEntity
  8
D-STR-DIM
  6
Continuous
 62
     5
370
    13
100
AcDbLine
 10
91.93787599456702
 20
223.0870887515152
 30
0.0
 11
92.07929735080432
 21
223.2285101077526
 31
0.0
  0
LINE
  5
74
330
1F
100
AcDbEntity
  8
D-STR-DIM
  6
Continuous
 62
     5
370
    13
100
AcDbLine
 10
92.05572712476477
 20
223.2520803337921
 30
0.0
 11
91.77288441229015
 21
222.9692376213175
 31
0.0
  0
LINE
  5
75
330
1F
100
AcDbEntity
  8
D-STR-DIM
  6
Continuous
 62
     5
370
    13
100
AcDbLine
 10
91.6078928300133
 20
222.8513864911197
 30
0.0
 11
92.03215689872522
 21
223.2756505598317
 31
0.0
  0
LINE
  5
76
330
1F
100
AcDbEntity
  8
D-STR-DIM
  6
Continuous
 62
     5
370
    13
100
AcDbLine
 10
92.00858667268567
 20
223.2992207858712
 30
0.0
 11
91.44290124773644
 21
222.733535360922
 31
0.0
  0
LINE
  5
77
330
1F
100
AcDbEntity
  8
D-STR-DIM
  6
Continuous
 62
     5
370
    13
100
AcDbLine
 10
91.2779096654596
 20
222.6156842307242
 30
0.0
 11
91.98501644664613
 21
223.3227910119108
 31
0.0
  0
LINE
  5
78
330
1F
100
AcDbEntity
  8
D-STR-DIM
  6
Continuous
 62
     5
370
    13
100
AcDbLine
 10
91.96144622060658
 20
223.3463612379503
 30
0.0
 11
91.39576079565735
 21
222.7806758130011
 31
0.0
  0
LINE
  5
79
330
1F
100
AcDbEntity
  8
D-STR-DIM
  6
Continuous
 62
     5
370
    13
100
AcDbLine
 10
91.5136119258551
 20
222.945667395278
 30
0.0
 11
91.93787599456702
 21
223.3699314639899
 31
0.0
  0
LINE
  5
7A
330
1F
100
AcDbEntity
  8
D-STR-DIM
  6
Continuous
 62
     5
370
    13
100
AcDbLine
 10
91.91430576852747
 20
223.3935016900294
 30
0.0
 11
91.63146305605285
 21
223.1106589775548
 31
0.0
  0
LINE
  5
7B
330
1F
100
AcDbEntity
  8
D-STR-DIM
  6
Continuous
 62
     5
370
    13
100
AcDbLine
 10
91.74931418625061
 20
223.2756505598317
 30
0.0
 11
91.89073554248792
 21
223.417071916069
 31
0.0
  0
LINE
  5
7C
330
1F
100
AcDbEntity
  8
D-STR-DIM
  6
Continuous
 62
     5
370
    13
100
AcDbLine
 10
98.7779096654596
 20
230.1156842307242
 30
0.0
 11
97.95295175407533
 21
229.5264285797355
 31
0.0
  0
LINE
  5
7D
330
1F
100
AcDbEntity
  8
D-STR-DIM
  6
Continuous
 62
     5
370
    13
100
AcDbLine
 10
98.7779096654596
 20
230.1156842307242
 30
0.0
 11
98.18865401447083
 21
229.29072631934
 31
0.0
  0
LINE
  5
7E
330
1F
100
AcDbEntity
  8
D-STR-DIM
  6
Continuous
 62
     5
370
    13
100
AcDbLine
 10
97.95295175407533
 20
229.5264285797355
 30
0.0
 11
98.18865401447083
 21
229.29072631934
 31
0.0
  0
LINE
  5
7F
330
1F
100
AcDbEntity
  8
D-STR-DIM
  6
Continuous
 62
     5
370
    13
100
AcDbLine
 10
98.11794333635218
 20
229.6442797099332
 30
0.0
 11
97.97652198011488
 21
229.5028583536959
 31
0.0
  0
LINE
  5
80
330
1F
100
AcDbEntity
  8
D-STR-DIM
  6
Continuous
 62
     5
370
    13
100
AcDbLine
 10
98.00009220615443
 20
229.4792881276564
 30
0.0
 11
98.28293491862905
 21
229.762130840131
 31
0.0
  0
LINE
  5
81
330
1F
100
AcDbEntity
  8
D-STR-DIM
  6
Continuous
 62
     5
370
    13
100
AcDbLine
 10
98.44792650090591
 20
229.8799819703287
 30
0.0
 11
98.02366243219399
 21
229.4557179016168
 31
0.0
  0
LINE
  5
82
330
1F
100
AcDbEntity
  8
D-STR-DIM
  6
Continuous
 62
     5
370
    13
100
AcDbLine
 10
98.04723265823354
 20
229.4321476755773
 30
0.0
 11
98.61291808318276
 21
229.9978331005265
 31
0.0
  0
LINE
  5
83
330
1F
100
AcDbEntity
  8
D-STR-DIM
  6
Continuous
 62
     5
370
    13
100
AcDbLine
 10
98.7779096654596
 20
230.1156842307242
 30
0.0
 11
98.07080288427308
 21
229.4085774495377
 31
0.0
  0
LINE
  5
84
330
1F
100
AcDbEntity
  8
D-STR-DIM
  6
Continuous
 62
     5
370
    13
100
AcDbLine
 10
98.09437311031263
 20
229.3850072234981
 30
0.0
 11
98.66005853526185
 21
229.9506926484474
 31
0.0
  0
LINE
  5
85
330
1F
100
AcDbEntity
  8
D-STR-DIM
  6
Continuous
 62
     5
370
    13
100
AcDbLine
 10
98.5422074050641
 20
229.7857010661705
 30
0.0
 11
98.11794333635218
 21
229.3614369974586
 31
0.0
  0
LINE
  5
86
330
1F
100
AcDbEntity
  8
D-STR-DIM
  6
Continuous
 62
     5
370
    13
100
AcDbLine
 10
98.14151356239174
 20
229.337866771419
 30
0.0
 11
98.42435627486635
 21
229.6207094838936
 31
0.0
  0
LINE
  5
87
330
1F
100
AcDbEntity
  8
D-STR-DIM
  6
Continuous
 62
     5
370
    13
100
AcDbLine
 10
98.30650514466859
 20
229.4557179016168
 30
0.0
 11
98.16508378843129
 21
229.3142965453795
 31
0.0
  0
LINE
  5
88
330
1F
100
AcDbEntity
  8
D-STR-DIM
  6
Continuous
 62
     5
370
    13
100
AcDbLine
 10
94.10633679045961
 20
219.7872571057243
 30
0.0
 11
90.5708028854596
 21
223.3227910132243
 31
0.0
  0
LINE
  5
89
330
1F
100
AcDbEntity
  8
D-STR-DIM
  6
Continuous
 62
     5
370
    13
100
AcDbLine
 10
101.6063367904596
 20
227.2872571057243
 30
0.0
 11
98.0708028854596
 21
230.8227910132243
 31
0.0
  0
TEXT
  5
8A
330
1F
100
AcDbEntity
  8
D-STR-DIM
  6
Continuous
 62
     5
370
    13
100
AcDbText
 10
90.23004897986908
 20
222.9925332226035
 30
0.0
 40
2.777777777777778
  1
3.0m以上
 50
45.0
 41
0.7999999999999998
  7
ＭＳ ゴシック
 72
     1
 11
94.67435627545959
 21
226.7192376207242
 31
0.0
100
AcDbText
 73
     1
  0
LINE
  5
8B
330
1F
100
AcDbEntity
  8
D-STR-DIM
  6
Continuous
 62
     5
370
    13
100
AcDbLine
 10
130.8060842591461
 20
229.4085774495377
 30
0.0
 11
136.8918706967731
 21
223.3227910119108
 31
0.0
  0
LINE
  5
8C
330
1F
100
AcDbEntity
  8
D-STR-DIM
  6
Continuous
 62
     5
370
    13
100
AcDbLine
 10
137.5989774779596
 20
222.6156842307242
 30
0.0
 11
137.5989774779596
 21
222.6156842307242
 31
0.0
  0
LINE
  5
8D
330
1F
100
AcDbEntity
  8
D-STR-DIM
  6
Continuous
 62
     5
370
    13
100
AcDbLine
 10
130.0989774779596
 20
230.1156842307242
 30
0.0
 11
130.6882331289484
 21
229.29072631934
 31
0.0
  0
LINE
  5
8E
330
1F
100
AcDbEntity
  8
D-STR-DIM
  6
Continuous
 62
     5
370
    13
100
AcDbLine
 10
130.0989774779596
 20
230.1156842307242
 30
0.0
 11
130.9239353893439
 21
229.5264285797355
 31
0.0
  0
LINE
  5
8F
330
1F
100
AcDbEntity
  8
D-STR-DIM
  6
Continuous
 62
     5
370
    13
100
AcDbLine
 10
130.6882331289484
 20
229.29072631934
 30
0.0
 11
130.9239353893439
 21
229.5264285797355
 31
0.0
  0
LINE
  5
90
330
1F
100
AcDbEntity
  8
D-STR-DIM
  6
Continuous
 62
     5
370
    13
100
AcDbLine
 10
130.5703819987506
 20
229.4557179016168
 30
0.0
 11
130.7118033549879
 21
229.3142965453795
 31
0.0
  0
LINE
  5
91
330
1F
100
AcDbEntity
  8
D-STR-DIM
  6
Continuous
 62
     5
370
    13
100
AcDbLine
 10
130.7353735810275
 20
229.3378667714191
 30
0.0
 11
130.4525308685529
 21
229.6207094838937
 31
0.0
  0
LINE
  5
92
330
1F
100
AcDbEntity
  8
D-STR-DIM
  6
Continuous
 62
     5
370
    13
100
AcDbLine
 10
130.3346797383551
 20
229.7857010661705
 30
0.0
 11
130.758943807067
 21
229.3614369974586
 31
0.0
  0
LINE
  5
93
330
1F
100
AcDbEntity
  8
D-STR-DIM
  6
Continuous
 62
     5
370
    13
100
AcDbLine
 10
130.7825140331066
 20
229.3850072234982
 30
0.0
 11
130.2168286081574
 21
229.9506926484474
 31
0.0
  0
LINE
  5
94
330
1F
100
AcDbEntity
  8
D-STR-DIM
  6
Continuous
 62
     5
370
    13
100
AcDbLine
 10
130.0989774779596
 20
230.1156842307242
 30
0.0
 11
130.8060842591461
 21
229.4085774495377
 31
0.0
  0
LINE
  5
95
330
1F
100
AcDbEntity
  8
D-STR-DIM
  6
Continuous
 62
     5
370
    13
100
AcDbLine
 10
130.8296544851857
 20
229.4321476755773
 30
0.0
 11
130.2639690602365
 21
229.9978331005265
 31
0.0
  0
LINE
  5
96
330
1F
100
AcDbEntity
  8
D-STR-DIM
  6
Continuous
 62
     5
370
    13
100
AcDbLine
 10
130.4289606425133
 20
229.8799819703287
 30
0.0
 11
130.8532247112252
 21
229.4557179016168
 31
0.0
  0
LINE
  5
97
330
1F
100
AcDbEntity
  8
D-STR-DIM
  6
Continuous
 62
     5
370
    13
100
AcDbLine
 10
130.8767949372648
 20
229.4792881276564
 30
0.0
 11
130.5939522247902
 21
229.762130840131
 31
0.0
  0
LINE
  5
98
330
1F
100
AcDbEntity
  8
D-STR-DIM
  6
Continuous
 62
     5
370
    13
100
AcDbLine
 10
130.758943807067
 20
229.6442797099332
 30
0.0
 11
130.9003651633043
 21
229.5028583536959
 31
0.0
  0
LINE
  5
99
330
1F
100
AcDbEntity
  8
D-STR-DIM
  6
Continuous
 62
     5
370
    13
100
AcDbLine
 10
137.5989774779596
 20
222.6156842307242
 30
0.0
 11
137.0097218269708
 21
223.4406421421085
 31
0.0
  0
LINE
  5
9A
330
1F
100
AcDbEntity
  8
D-STR-DIM
  6
Continuous
 62
     5
370
    13
100
AcDbLine
 10
137.5989774779596
 20
222.6156842307242
 30
0.0
 11
136.7740195665753
 21
223.204939881713
 31
0.0
  0
LINE
  5
9B
330
1F
100
AcDbEntity
  8
D-STR-DIM
  6
Continuous
 62
     5
370
    13
100
AcDbLine
 10
137.0097218269708
 20
223.4406421421085
 30
0.0
 11
136.7740195665753
 21
223.204939881713
 31
0.0
  0
LINE
  5
9C
330
1F
100
AcDbEntity
  8
D-STR-DIM
  6
Continuous
 62
     5
370
    13
100
AcDbLine
 10
137.1275729571686
 20
223.2756505598317
 30
0.0
 11
136.9861516009313
 21
223.417071916069
 31
0.0
  0
LINE
  5
9D
330
1F
100
AcDbEntity
  8
D-STR-DIM
  6
Continuous
 62
     5
370
    13
100
AcDbLine
 10
136.9625813748917
 20
223.3935016900294
 30
0.0
 11
137.2454240873663
 21
223.1106589775548
 31
0.0
  0
LINE
  5
9E
330
1F
100
AcDbEntity
  8
D-STR-DIM
  6
Continuous
 62
     5
370
    13
100
AcDbLine
 10
137.3632752175641
 20
222.945667395278
 30
0.0
 11
136.9390111488522
 21
223.3699314639899
 31
0.0
  0
LINE
  5
9F
330
1F
100
AcDbEntity
  8
D-STR-DIM
  6
Continuous
 62
     5
370
    13
100
AcDbLine
 10
136.9154409228126
 20
223.3463612379503
 30
0.0
 11
137.4811263477619
 21
222.7806758130011
 31
0.0
  0
LINE
  5
A0
330
1F
100
AcDbEntity
  8
D-STR-DIM
  6
Continuous
 62
     5
370
    13
100
AcDbLine
 10
137.5989774779596
 20
222.6156842307242
 30
0.0
 11
136.8918706967731
 21
223.3227910119108
 31
0.0
  0
LINE
  5
A1
330
1F
100
AcDbEntity
  8
D-STR-DIM
  6
Continuous
 62
     5
370
    13
100
AcDbLine
 10
136.8683004707335
 20
223.2992207858712
 30
0.0
 11
137.4339858956828
 21
222.733535360922
 31
0.0
  0
LINE
  5
A2
330
1F
100
AcDbEntity
  8
D-STR-DIM
  6
Continuous
 62
     5
370
    13
100
AcDbLine
 10
137.2689943134059
 20
222.8513864911197
 30
0.0
 11
136.844730244694
 21
223.2756505598317
 31
0.0
  0
LINE
  5
A3
330
1F
100
AcDbEntity
  8
D-STR-DIM
  6
Continuous
 62
     5
370
    13
100
AcDbLine
 10
136.8211600186544
 20
223.2520803337921
 30
0.0
 11
137.104002731129
 21
222.9692376213175
 31
0.0
  0
LINE
  5
A4
330
1F
100
AcDbEntity
  8
D-STR-DIM
  6
Continuous
 62
     5
370
    13
100
AcDbLine
 10
136.9390111488522
 20
223.0870887515152
 30
0.0
 11
136.7975897926149
 21
223.2285101077526
 31
0.0
  0
LINE
  5
A5
330
1F
100
AcDbEntity
  8
D-STR-DIM
  6
Continuous
 62
     5
370
    13
100
AcDbLine
 10
127.2705503529596
 20
227.2872571057243
 30
0.0
 11
130.8060842579596
 21
230.8227910132243
 31
0.0
  0
LINE
  5
A6
330
1F
100
AcDbEntity
  8
D-STR-DIM
  6
Continuous
 62
     5
370
    13
100
AcDbLine
 10
134.7705503529596
 20
219.7872571057243
 30
0.0
 11
138.3060842579596
 21
223.3227910132243
 31
0.0
  0
TEXT
  5
A7
330
1F
100
AcDbEntity
  8
D-STR-DIM
  6
Continuous
 62
     5
370
    13
100
AcDbText
 10
130.4758264698389
 20
231.1635449163148
 30
0.0
 40
2.777777777777778
  1
3.0m以上
 50
315.0
 41
0.7999999999999998
  7
ＭＳ ゴシック
 72
     1
 11
134.2025308679596
 21
226.7192376207243
 31
0.0
100
AcDbText
 73
     1
  0
DIMENSION
  5
A8
330
1F
100
AcDbEntity
  8
D-STR-DIM
  6
Continuous
 62
     5
370
    13
100
AcDbDimension
  2
*D1
 10
106.1136961017096
 20
182.8804028569743
 30
0.0
 11
103.9546863600361
 21
188.2213931153007
 31
0.0
 70
   160
  1
3.0m以上
 71
     5
 42
10.60660171779822
 53
314.999999999999
  3
Standard
100
AcDbAlignedDimension
 13
103.5634435704596
 23
195.3301503257243
 33
0.0
 14
111.0634435704596
 24
187.8301503257243
 34
0.0
 50
314.9999999999999
100
AcDbRotatedDimension
1001
ACAD
1000
DSTYLE
1002
{
1070
   271
1070
     2
1070
   178
1070
     5
1070
   177
1070
     5
1070
   176
1070
     5
1070
   289
1070
     3
1070
    77
1070
     1
1070
   174
1070
     1
1070
   172
1070
     1
1070
    73
1070
     1
1070
    74
1070
     0
1070
   173
1070
     1
1070
   279
1070
     2
1070
    44
1040
0.9999999983219737
1070
    42
1040
1.000000000089741
1070
   147
1040
0.0
1070
   140
1040
2.777777777777778
1070
    41
1040
0.9999999999999749
1070
   340
1005
48
1002
}
  0
DIMENSION
  5
B6
330
1F
100
AcDbEntity
  8
D-STR-DIM
  6
Continuous
 62
     5
370
    13
100
AcDbDimension
  2
*D2
 10
136.0131910404596
 20
192.8804028557242
 30
0.0
 11
130.6722007808831
 21
190.7213931153007
 31
0.0
 70
   160
  1
3.0m以上
 71
     5
 42
10.6066017177982
 53
45.0
  3
Standard
100
AcDbAlignedDimension
 13
123.5634435704596
 23
190.3301503257243
 33
0.0
 14
131.0634435704596
 24
197.8301503257243
 34
0.0
 50
45.0
100
AcDbRotatedDimension
1001
ACAD
1000
DSTYLE
1002
{
1070
   271
1070
     2
1070
   178
1070
     5
1070
   177
1070
     5
1070
   176
1070
     5
1070
   289
1070
     3
1070
    77
1070
     1
1070
   174
1070
     1
1070
   172
1070
     1
1070
    73
1070
     1
1070
    74
1070
     0
1070
   173
1070
     1
1070
   279
1070
     2
1070
    44
1040
0.9999999983219536
1070
    42
1040
1.000000001857522
1070
   147
1040
0.0
1070
   140
1040
2.777777777777778
1070
    41
1040
0.9999999999999749
1070
   340
1005
48
1002
}
  0
LINE
  5
C3
330
1F
100
AcDbEntity
  8
D-STR-STR3
  6
Continuous
 62
     1
370
    25
100
AcDbLine
 10
171.9404047054596
 20
199.0801503257243
 30
0.0
 11
130.5456766179596
 21
199.0801503257243
 31
0.0
  0
LINE
  5
C4
330
1F
100
AcDbEntity
  8
D-STR-STR3
  6
Continuous
 62
     1
370
    25
100
AcDbLine
 10
130.5456766179596
 20
199.0801503257243
 30
0.0
 11
122.3134435704596
 21
190.8479172782243
 31
0.0
  0
LINE
  5
C5
330
1F
100
AcDbEntity
  8
D-STR-STR3
  6
Continuous
 62
     1
370
    25
100
AcDbLine
 10
122.3134435704596
 20
190.8479172782243
 30
0.0
 11
122.3134435704596
 21
170.1536880157242
 31
0.0
  0
LINE
  5
C6
330
1F
100
AcDbEntity
  8
D-STR
  6
Continuous
 62
     7
370
    50
100
AcDbLine
 10
100.2466397604596
 20
145.2716668882242
 30
0.0
 11
100.2466397604596
 21
121.1364241232243
 31
0.0
  0
LINE
  5
C7
330
1F
100
AcDbEntity
  8
D-STR
  6
Continuous
 62
     7
370
    50
100
AcDbLine
 10
138.3750513479596
 20
113.6364241232243
 30
0.0
 11
107.7466397604596
 21
113.6364241232243
 31
0.0
  0
LINE
  5
C8
330
1F
100
AcDbEntity
  8
D-STR
  6
Continuous
 62
     7
370
    50
100
AcDbLine
 10
100.2466397604596
 20
121.1364241232243
 30
0.0
 11
107.7466397604596
 21
113.6364241232243
 31
0.0
  0
LINE
  5
C9
330
1F
100
AcDbEntity
  8
D-STR-STR3
  6
Continuous
 62
     1
370
    25
100
AcDbLine
 10
98.9966397604596
 20
145.2716668882242
 30
0.0
 11
98.9966397604596
 21
120.6186571707242
 31
0.0
  0
LINE
  5
CA
330
1F
100
AcDbEntity
  8
D-STR-STR3
  6
Continuous
 62
     1
370
    25
100
AcDbLine
 10
98.9966397604596
 20
120.6186571707242
 30
0.0
 11
107.2288728079596
 21
112.3864241232243
 31
0.0
  0
LINE
  5
CB
330
1F
100
AcDbEntity
  8
D-STR-STR3
  6
Continuous
 62
     1
370
    25
100
AcDbLine
 10
138.3750513479596
 20
112.3864241232243
 30
0.0
 11
107.2288728079596
 21
112.3864241232243
 31
0.0
  0
DIMENSION
  5
CC
330
1F
100
AcDbEntity
  8
D-STR-DIM
  6
Continuous
 62
     5
370
    13
100
AcDbDimension
  2
*D3
 10
111.2821736679596
 20
117.1719580307243
 30
0.0
 11
109.1231639250361
 21
122.5129482878007
 31
0.0
 70
   160
  1
3.0m以上
 71
     5
 42
10.60660171779821
 53
315.0
  3
Standard
100
AcDbAlignedDimension
 13
100.2466397604596
 23
121.1364241232243
 33
0.0
 14
107.7466397604596
 24
113.6364241232243
 34
0.0
 50
315.0
100
AcDbRotatedDimension
1001
ACAD
1000
DSTYLE
1002
{
1070
   271
1070
     2
1070
   178
1070
     5
1070
   177
1070
     5
1070
   176
1070
     5
1070
   289
1070
     3
1070
    77
1070
     1
1070
   174
1070
     1
1070
   172
1070
     1
1070
    73
1070
     1
1070
    74
1070
     0
1070
   173
1070
     1
1070
   279
1070
     2
1070
    44
1040
0.9999999983219536
1070
    42
1040
1.000000001857509
1070
   147
1040
0.0
1070
   140
1040
2.777777777777778
1070
    41
1040
0.9999999999999749
1070
   340
1005
48
1002
}
  0
TEXT
  5
D9
330
1F
100
AcDbEntity
  8
D-TTL-TXT
  6
Continuous
 62
     7
370
    13
100
AcDbText
 10
72.43615076601671
 20
214.4970205595798
 30
0.0
 40
2.777777777777778
  1
歩道
 41
0.8
  7
ＭＳ ゴシック
 11
72.43615076601671
 21
213.9895986845798
 31
0.0
100
AcDbText
 73
     1
  0
TEXT
  5
DA
330
1F
100
AcDbEntity
  8
D-TTL-TXT
  6
Continuous
 62
     7
370
    13
100
AcDbText
 10
104.6561298746518
 20
242.2278899721448
 30
0.0
 40
1.975308641975309
  1
歩道
 50
270.0
 41
1.25
  7
V-ＭＳ ゴシック
 11
104.2952965413185
 21
242.2278899721448
 31
0.0
100
AcDbText
 73
     1
  0
TEXT
  5
DB
330
1F
100
AcDbEntity
  8
D-TTL-TXT
  6
Continuous
 62
     7
370
    13
100
AcDbText
 10
150.4375899489322
 20
214.780808597377
 30
0.0
 40
2.777777777777778
  1
歩道
 41
0.8
  7
ＭＳ ゴシック
 11
150.4375899489322
 21
214.273386722377
 31
0.0
100
AcDbText
 73
     1
  0
ENDSEC
  0
SECTION
  2
OBJECTS
  0
DICTIONARY
  5
C
330
0
100
AcDbDictionary
281
     1
  3
ACAD_GROUP
350
D
  3
ACAD_LAYOUT
350
1A
  3
ACAD_MATERIAL
350
3B
  3
ACAD_MLEADERSTYLE
350
100
  3
ACAD_MLINESTYLE
350
17
  3
ACAD_PLOTSETTINGS
350
19
  3
ACAD_PLOTSTYLENAME
350
E
  3
ACAD_SCALELIST
350
DC
  3
ACAD_VISUALSTYLE
350
2A
  3
AcDbVariableDictionary
350
FE
  0
DICTIONARY
  5
D
102
{ACAD_REACTORS
330
C
102
}
330
C
100
AcDbDictionary
281
     1
  0
DICTIONARY
  5
1A
102
{ACAD_REACTORS
330
C
102
}
330
C
100
AcDbDictionary
281
     1
  3
Layout1
350
1E
  3
Layout2
350
26
  3
Model
350
22
  0
DICTIONARY
  5
3B
102
{ACAD_REACTORS
330
C
102
}
330
C
100
AcDbDictionary
281
     1
  3
ByBlock
350
3D
  3
ByLayer
350
3C
  3
Global
350
3E
  0
DICTIONARY
  5
100
102
{ACAD_REACTORS
330
C
102
}
330
C
100
AcDbDictionary
281
     1
  0
DICTIONARY
  5
17
102
{ACAD_REACTORS
330
C
102
}
330
C
100
AcDbDictionary
281
     1
  3
Standard
350
18
  0
DICTIONARY
  5
19
102
{ACAD_REACTORS
330
C
102
}
330
C
100
AcDbDictionary
281
     1
  0
ACDBDICTIONARYWDFLT
  5
E
102
{ACAD_REACTORS
330
C
102
}
330
C
100
AcDbDictionary
281
     1
  3
Normal
350
F
100
AcDbDictionaryWithDefault
340
F
  0
DICTIONARY
  5
DC
102
{ACAD_REACTORS
330
C
102
}
330
C
100
AcDbDictionary
281
     1
  3
A0
350
DD
  3
A1
350
DE
  3
A2
350
DF
  3
A3
350
E0
  3
A4
350
E1
  3
A5
350
E2
  3
A6
350
E3
  3
A7
350
E4
  3
A8
350
E5
  3
A9
350
E6
  3
B0
350
E7
  3
B1
350
E8
  3
B2
350
E9
  3
B3
350
EA
  3
B4
350
EB
  3
B5
350
EC
  3
B6
350
ED
  3
B7
350
EE
  3
B8
350
EF
  3
B9
350
F0
  3
C0
350
F1
  3
C1
350
F2
  3
C2
350
F3
  3
C3
350
F4
  3
C4
350
F5
  3
C5
350
F6
  3
C6
350
F7
  3
C7
350
F8
  3
C8
350
F9
  3
C9
350
FA
  3
D0
350
FB
  3
D1
350
FC
  3
D2
350
FD
  0
DICTIONARY
  5
2A
102
{ACAD_REACTORS
330
C
102
}
330
C
100
AcDbDictionary
281
     1
  3
2dWireframe
350
2F
  3
3D Hidden
350
31
  3
3dWireframe
350
30
  3
Basic
350
32
  3
Brighten
350
36
  3
ColorChange
350
3A
  3
Conceptual
350
34
  3
Dim
350
35
  3
Facepattern
350
39
  3
Flat
350
2B
  3
FlatWithEdges
350
2C
  3
Gouraud
350
2D
  3
GouraudWithEdges
350
2E
  3
Linepattern
350
38
  3
Realistic
350
33
  3
Thicken
350
37
  0
DICTIONARY
  5
FE
102
{ACAD_REACTORS
330
C
102
}
330
C
100
AcDbDictionary
281
     1
  3
CANNOSCALE
350
101
  3
DIMASSOC
350
102
  3
HIDETEXT
350
103
  0
LAYOUT
  5
1E
102
{ACAD_REACTORS
330
1A
102
}
330
1A
100
AcDbPlotSettings
  1

  2
none_device
  4

  6

 40
0.0
 41
0.0
 42
0.0
 43
0.0
 44
0.0
 45
0.0
 46
0.0
 47
0.0
 48
0.0
 49
0.0
140
0.0
141
0.0
142
1.0
143
1.0
 70
   688
 72
     0
 73
     0
 74
     5
  7

 75
    16
147
1.0
148
0.0
149
0.0
100
AcDbLayout
  1
Layout1
 70
     1
 71
     1
 10
0.0
 20
0.0
 11
12.0
 21
9.0
 12
0.0
 22
0.0
 32
0.0
 14
1.000000000000000E+20
 24
1.000000000000000E+20
 34
1.000000000000000E+20
 15
-1.000000000000000E+20
 25
-1.000000000000000E+20
 35
-1.000000000000000E+20
146
0.0
 13
0.0
 23
0.0
 33
0.0
 16
1.0
 26
0.0
 36
0.0
 17
0.0
 27
1.0
 37
0.0
 76
     0
330
1B
  0
LAYOUT
  5
26
102
{ACAD_REACTORS
330
1A
102
}
330
1A
100
AcDbPlotSettings
  1

  2
none_device
  4

  6

 40
0.0
 41
0.0
 42
0.0
 43
0.0
 44
0.0
 45
0.0
 46
0.0
 47
0.0
 48
0.0
 49
0.0
140
0.0
141
0.0
142
1.0
143
1.0
 70
   688
 72
     0
 73
     0
 74
     5
  7

 75
    16
147
1.0
148
0.0
149
0.0
100
AcDbLayout
  1
Layout2
 70
     1
 71
     2
 10
0.0
 20
0.0
 11
0.0
 21
0.0
 12
0.0
 22
0.0
 32
0.0
 14
0.0
 24
0.0
 34
0.0
 15
0.0
 25
0.0
 35
0.0
146
0.0
 13
0.0
 23
0.0
 33
0.0
 16
1.0
 26
0.0
 36
0.0
 17
0.0
 27
1.0
 37
0.0
 76
     0
330
23
  0
LAYOUT
  5
22
102
{ACAD_REACTORS
330
1A
102
}
330
1A
100
AcDbPlotSettings
  1

  2
none_device
  4

  6

 40
0.0
 41
0.0
 42
0.0
 43
0.0
 44
0.0
 45
0.0
 46
0.0
 47
0.0
 48
0.0
 49
0.0
140
0.0
141
0.0
142
1.0
143
1.0
 70
  1712
 72
     0
 73
     0
 74
     0
  7

 75
     0
147
1.0
148
0.0
149
0.0
100
AcDbLayout
  1
Model
 70
     1
 71
     0
 10
38.9847467779596
 20
101.1364241232243
 11
171.9404047054596
 21
266.3038976632242
 12
0.0
 22
0.0
 32
0.0
 14
38.9847467779596
 24
101.1364241232243
 34
0.0
 15
171.9404047054596
 25
266.3038976632242
 35
0.0
146
0.0
 13
0.0
 23
0.0
 33
0.0
 16
1.0
 26
0.0
 36
0.0
 17
0.0
 27
1.0
 37
0.0
 76
     0
330
1F
331
29
  0
MATERIAL
  5
3D
102
{ACAD_REACTORS
330
3B
102
}
102
{ACAD_XDICTIONARY
360
126
102
}
330
3B
100
AcDbMaterial
  1
ByBlock
  0
MATERIAL
  5
3C
102
{ACAD_REACTORS
330
3B
102
}
102
{ACAD_XDICTIONARY
360
124
102
}
330
3B
100
AcDbMaterial
  1
ByLayer
  0
MATERIAL
  5
3E
102
{ACAD_REACTORS
330
3B
102
}
102
{ACAD_XDICTIONARY
360
128
102
}
330
3B
100
AcDbMaterial
  1
Global
  0
MLINESTYLE
  5
18
102
{ACAD_REACTORS
330
17
102
}
330
17
100
AcDbMlineStyle
  2
Standard
 70
     0
  3

 62
   256
 51
90.0
 52
90.0
 71
     2
 49
0.5
 62
   256
  6
BYLAYER
 49
-0.5
 62
   256
  6
BYLAYER
  0
ACDBPLACEHOLDER
  5
F
102
{ACAD_REACTORS
330
E
102
}
330
E
  0
SCALE
  5
DD
102
{ACAD_REACTORS
330
DC
102
}
330
DC
100
AcDbScale
 70
     0
300
1:1
140
1.0
141
1.0
290
     1
  0
SCALE
  5
DE
102
{ACAD_REACTORS
330
DC
102
}
330
DC
100
AcDbScale
 70
     0
300
1:2
140
1.0
141
2.0
290
     0
  0
SCALE
  5
DF
102
{ACAD_REACTORS
330
DC
102
}
330
DC
100
AcDbScale
 70
     0
300
1:4
140
1.0
141
4.0
290
     0
  0
SCALE
  5
E0
102
{ACAD_REACTORS
330
DC
102
}
330
DC
100
AcDbScale
 70
     0
300
1:5
140
1.0
141
5.0
290
     0
  0
SCALE
  5
E1
102
{ACAD_REACTORS
330
DC
102
}
330
DC
100
AcDbScale
 70
     0
300
1:8
140
1.0
141
8.0
290
     0
  0
SCALE
  5
E2
102
{ACAD_REACTORS
330
DC
102
}
330
DC
100
AcDbScale
 70
     0
300
1:10
140
1.0
141
10.0
290
     0
  0
SCALE
  5
E3
102
{ACAD_REACTORS
330
DC
102
}
330
DC
100
AcDbScale
 70
     0
300
1:16
140
1.0
141
16.0
290
     0
  0
SCALE
  5
E4
102
{ACAD_REACTORS
330
DC
102
}
330
DC
100
AcDbScale
 70
     0
300
1:20
140
1.0
141
20.0
290
     0
  0
SCALE
  5
E5
102
{ACAD_REACTORS
330
DC
102
}
330
DC
100
AcDbScale
 70
     0
300
1:30
140
1.0
141
30.0
290
     0
  0
SCALE
  5
E6
102
{ACAD_REACTORS
330
DC
102
}
330
DC
100
AcDbScale
 70
     0
300
1:40
140
1.0
141
40.0
290
     0
  0
SCALE
  5
E7
102
{ACAD_REACTORS
330
DC
102
}
330
DC
100
AcDbScale
 70
     0
300
1:50
140
1.0
141
50.0
290
     0
  0
SCALE
  5
E8
102
{ACAD_REACTORS
330
DC
102
}
330
DC
100
AcDbScale
 70
     0
300
1:100
140
1.0
141
100.0
290
     0
  0
SCALE
  5
E9
102
{ACAD_REACTORS
330
DC
102
}
330
DC
100
AcDbScale
 70
     0
300
2:1
140
2.0
141
1.0
290
     0
  0
SCALE
  5
EA
102
{ACAD_REACTORS
330
DC
102
}
330
DC
100
AcDbScale
 70
     0
300
4:1
140
4.0
141
1.0
290
     0
  0
SCALE
  5
EB
102
{ACAD_REACTORS
330
DC
102
}
330
DC
100
AcDbScale
 70
     0
300
8:1
140
8.0
141
1.0
290
     0
  0
SCALE
  5
EC
102
{ACAD_REACTORS
330
DC
102
}
330
DC
100
AcDbScale
 70
     0
300
10:1
140
10.0
141
1.0
290
     0
  0
SCALE
  5
ED
102
{ACAD_REACTORS
330
DC
102
}
330
DC
100
AcDbScale
 70
     0
300
100:1
140
100.0
141
1.0
290
     0
  0
SCALE
  5
EE
102
{ACAD_REACTORS
330
DC
102
}
330
DC
100
AcDbScale
 70
     0
300
1/128" = 1'-0"
140
0.0078125
141
12.0
290
     0
  0
SCALE
  5
EF
102
{ACAD_REACTORS
330
DC
102
}
330
DC
100
AcDbScale
 70
     0
300
1/64" = 1'-0"
140
0.015625
141
12.0
290
     0
  0
SCALE
  5
F0
102
{ACAD_REACTORS
330
DC
102
}
330
DC
100
AcDbScale
 70
     0
300
1/32" = 1'-0"
140
0.03125
141
12.0
290
     0
  0
SCALE
  5
F1
102
{ACAD_REACTORS
330
DC
102
}
330
DC
100
AcDbScale
 70
     0
300
1/16" = 1'-0"
140
0.0625
141
12.0
290
     0
  0
SCALE
  5
F2
102
{ACAD_REACTORS
330
DC
102
}
330
DC
100
AcDbScale
 70
     0
300
3/32" = 1'-0"
140
0.09375
141
12.0
290
     0
  0
SCALE
  5
F3
102
{ACAD_REACTORS
330
DC
102
}
330
DC
100
AcDbScale
 70
     0
300
1/8" = 1'-0"
140
0.125
141
12.0
290
     0
  0
SCALE
  5
F4
102
{ACAD_REACTORS
330
DC
102
}
330
DC
100
AcDbScale
 70
     0
300
3/16" = 1'-0"
140
0.1875
141
12.0
290
     0
  0
SCALE
  5
F5
102
{ACAD_REACTORS
330
DC
102
}
330
DC
100
AcDbScale
 70
     0
300
1/4" = 1'-0"
140
0.25
141
12.0
290
     0
  0
SCALE
  5
F6
102
{ACAD_REACTORS
330
DC
102
}
330
DC
100
AcDbScale
 70
     0
300
3/8" = 1'-0"
140
0.375
141
12.0
290
     0
  0
SCALE
  5
F7
102
{ACAD_REACTORS
330
DC
102
}
330
DC
100
AcDbScale
 70
     0
300
1/2" = 1'-0"
140
0.5
141
12.0
290
     0
  0
SCALE
  5
F8
102
{ACAD_REACTORS
330
DC
102
}
330
DC
100
AcDbScale
 70
     0
300
3/4" = 1'-0"
140
0.75
141
12.0
290
     0
  0
SCALE
  5
F9
102
{ACAD_REACTORS
330
DC
102
}
330
DC
100
AcDbScale
 70
     0
300
1" = 1'-0"
140
1.0
141
12.0
290
     0
  0
SCALE
  5
FA
102
{ACAD_REACTORS
330
DC
102
}
330
DC
100
AcDbScale
 70
     0
300
1-1/2" = 1'-0"
140
1.5
141
12.0
290
     0
  0
SCALE
  5
FB
102
{ACAD_REACTORS
330
DC
102
}
330
DC
100
AcDbScale
 70
     0
300
3" = 1'-0"
140
3.0
141
12.0
290
     0
  0
SCALE
  5
FC
102
{ACAD_REACTORS
330
DC
102
}
330
DC
100
AcDbScale
 70
     0
300
6" = 1'-0"
140
6.0
141
12.0
290
     0
  0
SCALE
  5
FD
102
{ACAD_REACTORS
330
DC
102
}
330
DC
100
AcDbScale
 70
     0
300
1'-0" = 1'-0"
140
12.0
141
12.0
290
     0
  0
VISUALSTYLE
  5
2F
102
{ACAD_REACTORS
330
2A
102
}
102
{ACAD_XDICTIONARY
360
10C
102
}
330
2A
100
AcDbVisualStyle
  2
2dWireframe
 70
     4
 71
     0
 72
     2
 73
     0
 90
        0
 40
-0.6
 41
-30.0
 62
     5
 63
     7
 74
     1
 91
        4
 64
     7
 65
   257
 75
     1
175
     1
 42
1.0
 92
        0
 66
   257
 43
1.0
 76
     1
 77
     6
 78
     2
 67
     7
 79
     5
170
     0
171
     0
290
     0
174
     0
 93
        1
 44
0.0
173
     0
291
     0
 45
0.0
1001
ACAD
1000
AcDbSavedByObjectVersion
1070
     0
  0
VISUALSTYLE
  5
31
102
{ACAD_REACTORS
330
2A
102
}
102
{ACAD_XDICTIONARY
360
110
102
}
330
2A
100
AcDbVisualStyle
  2
3D Hidden
 70
     6
 71
     1
 72
     2
 73
     2
 90
        0
 40
-0.6
 41
-30.0
 62
     5
 63
     7
 74
     2
 91
        2
 64
     7
 65
   257
 75
     2
175
     1
 42
40.0
 92
        0
 66
   257
 43
1.0
 76
     1
 77
     6
 78
     2
 67
     7
 79
     3
170
     0
171
     0
290
     0
174
     0
 93
        1
 44
0.0
173
     0
291
     0
 45
0.0
1001
ACAD
1000
AcDbSavedByObjectVersion
1070
     0
  0
VISUALSTYLE
  5
30
102
{ACAD_REACTORS
330
2A
102
}
102
{ACAD_XDICTIONARY
360
10E
102
}
330
2A
100
AcDbVisualStyle
  2
3dWireframe
 70
     5
 71
     0
 72
     2
 73
     0
 90
        0
 40
-0.6
 41
-30.0
 62
     5
 63
     7
 74
     1
 91
        4
 64
     7
 65
   257
 75
     1
175
     1
 42
1.0
 92
        0
 66
   257
 43
1.0
 76
     1
 77
     6
 78
     2
 67
     7
 79
     5
170
     0
171
     0
290
     0
174
     0
 93
        1
 44
0.0
173
     0
291
     0
 45
0.0
1001
ACAD
1000
AcDbSavedByObjectVersion
1070
     0
  0
VISUALSTYLE
  5
32
102
{ACAD_REACTORS
330
2A
102
}
102
{ACAD_XDICTIONARY
360
112
102
}
330
2A
100
AcDbVisualStyle
  2
Basic
 70
     7
 71
     1
 72
     0
 73
     1
 90
        0
 40
-0.6
 41
-30.0
 62
     5
 63
     7
 74
     0
 91
        4
 64
     7
 65
   257
 75
     1
175
     1
 42
1.0
 92
        8
 66
     7
 43
1.0
 76
     1
 77
     6
 78
     2
 67
     7
 79
     5
170
     0
171
     0
290
     0
174
     0
 93
        1
 44
0.0
173
     0
291
     1
 45
0.0
1001
ACAD
1000
AcDbSavedByObjectVersion
1070
     0
  0
VISUALSTYLE
  5
36
102
{ACAD_REACTORS
330
2A
102
}
102
{ACAD_XDICTIONARY
360
11A
102
}
330
2A
100
AcDbVisualStyle
  2
Brighten
 70
    12
 71
     2
 72
     2
 73
     0
 90
        0
 40
-0.6
 41
-30.0
 62
     5
 63
     7
 74
     1
 91
        4
 64
     7
 65
   257
 75
     1
175
     1
 42
1.0
 92
        8
 66
     7
 43
1.0
 76
     1
 77
     6
 78
     2
 67
     7
 79
     5
170
     0
171
     0
290
     0
174
     0
 93
        1
 44
50.0
173
     0
291
     1
 45
0.0
1001
ACAD
1000
AcDbSavedByObjectVersion
1070
     0
  0
VISUALSTYLE
  5
3A
102
{ACAD_REACTORS
330
2A
102
}
102
{ACAD_XDICTIONARY
360
122
102
}
330
2A
100
AcDbVisualStyle
  2
ColorChange
 70
    16
 71
     2
 72
     2
 73
     3
 90
        0
 40
-0.6
 41
-30.0
 62
     5
 63
     8
 74
     1
 91
        4
 64
     7
 65
   257
 75
     1
175
     1
 42
1.0
 92
        8
 66
     8
 43
1.0
 76
     1
 77
     6
 78
     2
 67
     7
 79
     5
170
     0
171
     0
290
     0
174
     0
 93
        1
 44
0.0
173
     0
291
     1
 45
0.0
1001
ACAD
1000
AcDbSavedByObjectVersion
1070
     0
  0
VISUALSTYLE
  5
34
102
{ACAD_REACTORS
330
2A
102
}
102
{ACAD_XDICTIONARY
360
116
102
}
330
2A
100
AcDbVisualStyle
  2
Conceptual
 70
     9
 71
     3
 72
     2
 73
     0
 90
        0
 40
-0.6
 41
-30.0
 62
     5
 63
     7
 74
     2
 91
        2
 64
     7
 65
   257
 75
     1
175
     1
 42
40.0
 92
        8
 66
     7
 43
1.0
 76
     1
 77
     6
 78
     2
 67
     7
 79
     3
170
     0
171
     0
290
     0
174
     0
 93
        1
 44
0.0
173
     0
291
     0
 45
0.0
1001
ACAD
1000
AcDbSavedByObjectVersion
1070
     0
  0
VISUALSTYLE
  5
35
102
{ACAD_REACTORS
330
2A
102
}
102
{ACAD_XDICTIONARY
360
118
102
}
330
2A
100
AcDbVisualStyle
  2
Dim
 70
    11
 71
     2
 72
     2
 73
     0
 90
        0
 40
-0.6
 41
-30.0
 62
     5
 63
     7
 74
     1
 91
        4
 64
     7
 65
   257
 75
     1
175
     1
 42
1.0
 92
        8
 66
     7
 43
1.0
 76
     1
 77
     6
 78
     2
 67
     7
 79
     5
170
     0
171
     0
290
     0
174
     0
 93
        1
 44
-50.0
173
     0
291
     1
 45
0.0
1001
ACAD
1000
AcDbSavedByObjectVersion
1070
     0
  0
VISUALSTYLE
  5
39
102
{ACAD_REACTORS
330
2A
102
}
102
{ACAD_XDICTIONARY
360
120
102
}
330
2A
100
AcDbVisualStyle
  2
Facepattern
 70
    15
 71
     2
 72
     2
 73
     0
 90
        0
 40
-0.6
 41
-30.0
 62
     5
 63
     7
 74
     1
 91
        4
 64
     7
 65
   257
 75
     1
175
     1
 42
1.0
 92
        8
 66
     7
 43
1.0
 76
     1
 77
     6
 78
     2
 67
     7
 79
     5
170
     0
171
     0
290
     0
174
     0
 93
        1
 44
0.0
173
     0
291
     1
 45
0.0
1001
ACAD
1000
AcDbSavedByObjectVersion
1070
     0
  0
VISUALSTYLE
  5
2B
102
{ACAD_REACTORS
330
2A
102
}
102
{ACAD_XDICTIONARY
360
104
102
}
330
2A
100
AcDbVisualStyle
  2
Flat
 70
     0
 71
     2
 72
     1
 73
     1
 90
        2
 40
-0.6
 41
30.0
 62
     5
 63
     7
 74
     0
 91
        4
 64
     7
 65
   257
 75
     1
175
     1
 42
1.0
 92
        8
 66
     7
 43
1.0
 76
     1
 77
     6
 78
     2
 67
     7
 79
     5
170
     0
171
     0
290
     0
174
     0
 93
       13
 44
0.0
173
     0
291
     1
 45
0.0
1001
ACAD
1000
AcDbSavedByObjectVersion
1070
     0
  0
VISUALSTYLE
  5
2C
102
{ACAD_REACTORS
330
2A
102
}
102
{ACAD_XDICTIONARY
360
106
102
}
330
2A
100
AcDbVisualStyle
  2
FlatWithEdges
 70
     1
 71
     2
 72
     1
 73
     1
 90
        2
 40
-0.6
 41
30.0
 62
     5
 63
     7
 74
     1
 91
        4
 64
     7
 65
   257
 75
     1
175
     1
 42
1.0
 92
        0
 66
   257
 43
1.0
 76
     1
 77
     6
 78
     2
 67
     7
 79
     5
170
     0
171
     0
290
     0
174
     0
 93
       13
 44
0.0
173
     0
291
     1
 45
0.0
1001
ACAD
1000
AcDbSavedByObjectVersion
1070
     0
  0
VISUALSTYLE
  5
2D
102
{ACAD_REACTORS
330
2A
102
}
102
{ACAD_XDICTIONARY
360
108
102
}
330
2A
100
AcDbVisualStyle
  2
Gouraud
 70
     2
 71
     2
 72
     2
 73
     1
 90
        2
 40
-0.6
 41
30.0
 62
     5
 63
     7
 74
     0
 91
        4
 64
     7
 65
   257
 75
     1
175
     1
 42
1.0
 92
        0
 66
     7
 43
1.0
 76
     1
 77
     6
 78
     2
 67
     7
 79
     5
170
     0
171
     0
290
     0
174
     0
 93
       13
 44
0.0
173
     0
291
     1
 45
0.0
1001
ACAD
1000
AcDbSavedByObjectVersion
1070
     0
  0
VISUALSTYLE
  5
2E
102
{ACAD_REACTORS
330
2A
102
}
102
{ACAD_XDICTIONARY
360
10A
102
}
330
2A
100
AcDbVisualStyle
  2
GouraudWithEdges
 70
     3
 71
     2
 72
     2
 73
     1
 90
        2
 40
-0.6
 41
30.0
 62
     5
 63
     7
 74
     1
 91
        4
 64
     7
 65
   257
 75
     1
175
     1
 42
1.0
 92
        0
 66
   257
 43
1.0
 76
     1
 77
     6
 78
     2
 67
     7
 79
     5
170
     0
171
     0
290
     0
174
     0
 93
       13
 44
0.0
173
     0
291
     1
 45
0.0
1001
ACAD
1000
AcDbSavedByObjectVersion
1070
     0
  0
VISUALSTYLE
  5
38
102
{ACAD_REACTORS
330
2A
102
}
102
{ACAD_XDICTIONARY
360
11E
102
}
330
2A
100
AcDbVisualStyle
  2
Linepattern
 70
    14
 71
     2
 72
     2
 73
     0
 90
        0
 40
-0.6
 41
-30.0
 62
     5
 63
     7
 74
     1
 91
        4
 64
     7
 65
   257
 75
     7
175
     7
 42
1.0
 92
        8
 66
     7
 43
1.0
 76
     1
 77
     6
 78
     2
 67
     7
 79
     5
170
     0
171
     0
290
     0
174
     0
 93
        1
 44
0.0
173
     0
291
     1
 45
0.0
1001
ACAD
1000
AcDbSavedByObjectVersion
1070
     0
  0
VISUALSTYLE
  5
33
102
{ACAD_REACTORS
330
2A
102
}
102
{ACAD_XDICTIONARY
360
114
102
}
330
2A
100
AcDbVisualStyle
  2
Realistic
 70
     8
 71
     2
 72
     2
 73
     0
 90
        0
 40
-0.6
 41
-30.0
 62
     5
 63
     7
 74
     1
 91
        0
 64
     7
 65
   257
 75
     1
175
     1
 42
1.0
 92
        8
 66
     8
 43
1.0
 76
     1
 77
     6
 78
     2
 67
     7
 79
     5
170
     0
171
     0
290
     0
174
     0
 93
       13
 44
0.0
173
     0
291
     0
 45
0.0
1001
ACAD
1000
AcDbSavedByObjectVersion
1070
     0
  0
VISUALSTYLE
  5
37
102
{ACAD_REACTORS
330
2A
102
}
102
{ACAD_XDICTIONARY
360
11C
102
}
330
2A
100
AcDbVisualStyle
  2
Thicken
 70
    13
 71
     2
 72
     2
 73
     0
 90
        0
 40
-0.6
 41
-30.0
 62
     5
 63
     7
 74
     1
 91
        4
 64
     7
 65
   257
 75
     1
175
     1
 42
1.0
 92
       12
 66
     7
 43
1.0
 76
     1
 77
     6
 78
     2
 67
     7
 79
     5
170
     0
171
     0
290
     0
174
     0
 93
        1
 44
0.0
173
     0
291
     1
 45
0.0
1001
ACAD
1000
AcDbSavedByObjectVersion
1070
     0
  0
DICTIONARYVAR
  5
101
102
{ACAD_REACTORS
330
FE
102
}
330
FE
100
DictionaryVariables
280
     0
  1
1:1
  0
DICTIONARYVAR
  5
102
102
{ACAD_REACTORS
330
FE
102
}
330
FE
100
DictionaryVariables
280
     0
  1
2
  0
DICTIONARYVAR
  5
103
102
{ACAD_REACTORS
330
FE
102
}
330
FE
100
DictionaryVariables
280
     0
  1
1
  0
DICTIONARY
  5
126
330
3D
100
AcDbDictionary
280
     1
281
     1
  3
ACAD_XREC_ROUNDTRIP
360
127
  0
DICTIONARY
  5
124
330
3C
100
AcDbDictionary
280
     1
281
     1
  3
ACAD_XREC_ROUNDTRIP
360
125
  0
DICTIONARY
  5
128
330
3E
100
AcDbDictionary
280
     1
281
     1
  3
ACAD_XREC_ROUNDTRIP
360
129
  0
DICTIONARY
  5
10C
330
2F
100
AcDbDictionary
280
     1
281
     1
  3
ACAD_XREC_ROUNDTRIP
360
10D
  0
DICTIONARY
  5
110
330
31
100
AcDbDictionary
280
     1
281
     1
  3
ACAD_XREC_ROUNDTRIP
360
111
  0
DICTIONARY
  5
10E
330
30
100
AcDbDictionary
280
     1
281
     1
  3
ACAD_XREC_ROUNDTRIP
360
10F
  0
DICTIONARY
  5
112
330
32
100
AcDbDictionary
280
     1
281
     1
  3
ACAD_XREC_ROUNDTRIP
360
113
  0
DICTIONARY
  5
11A
330
36
100
AcDbDictionary
280
     1
281
     1
  3
ACAD_XREC_ROUNDTRIP
360
11B
  0
DICTIONARY
  5
122
330
3A
100
AcDbDictionary
280
     1
281
     1
  3
ACAD_XREC_ROUNDTRIP
360
123
  0
DICTIONARY
  5
116
330
34
100
AcDbDictionary
280
     1
281
     1
  3
ACAD_XREC_ROUNDTRIP
360
117
  0
DICTIONARY
  5
118
330
35
100
AcDbDictionary
280
     1
281
     1
  3
ACAD_XREC_ROUNDTRIP
360
119
  0
DICTIONARY
  5
120
330
39
100
AcDbDictionary
280
     1
281
     1
  3
ACAD_XREC_ROUNDTRIP
360
121
  0
DICTIONARY
  5
104
330
2B
100
AcDbDictionary
280
     1
281
     1
  3
ACAD_XREC_ROUNDTRIP
360
105
  0
DICTIONARY
  5
106
330
2C
100
AcDbDictionary
280
     1
281
     1
  3
ACAD_XREC_ROUNDTRIP
360
107
  0
DICTIONARY
  5
108
330
2D
100
AcDbDictionary
280
     1
281
     1
  3
ACAD_XREC_ROUNDTRIP
360
109
  0
DICTIONARY
  5
10A
330
2E
100
AcDbDictionary
280
     1
281
     1
  3
ACAD_XREC_ROUNDTRIP
360
10B
  0
DICTIONARY
  5
11E
330
38
100
AcDbDictionary
280
     1
281
     1
  3
ACAD_XREC_ROUNDTRIP
360
11F
  0
DICTIONARY
  5
114
330
33
100
AcDbDictionary
280
     1
281
     1
  3
ACAD_XREC_ROUNDTRIP
360
115
  0
DICTIONARY
  5
11C
330
37
100
AcDbDictionary
280
     1
281
     1
  3
ACAD_XREC_ROUNDTRIP
360
11D
  0
XRECORD
  5
127
102
{ACAD_REACTORS
330
126
102
}
330
126
100
AcDbXrecord
280
     1
102
MATERIAL
148
0.0
149
0.0
149
0.0
 93
        0
 94
      127
282
     0
 72
     1
 77
     1
171
     1
175
     1
179
     1
273
     0
  0
XRECORD
  5
125
102
{ACAD_REACTORS
330
124
102
}
330
124
100
AcDbXrecord
280
     1
102
MATERIAL
148
0.0
149
0.0
149
0.0
 93
        0
 94
      127
282
     0
 72
     1
 77
     1
171
     1
175
     1
179
     1
273
     0
  0
XRECORD
  5
129
102
{ACAD_REACTORS
330
128
102
}
330
128
100
AcDbXrecord
280
     1
102
MATERIAL
148
0.0
149
0.0
149
0.0
 93
        0
 94
      127
282
     0
 72
     1
 77
     1
171
     1
175
     1
179
     1
273
     0
  0
XRECORD
  5
10D
102
{ACAD_REACTORS
330
10C
102
}
330
10C
100
AcDbXrecord
280
     1
102
RTVSPropertyOp0
 70
     1
102
RTVSPropertyOp1
 70
     1
102
RTVSPropertyOp2
 70
     1
102
RTVSPropertyOp3
 70
     1
102
RTVSPropertyOp4
 70
     1
102
RTVSPropertyOp5
 70
     1
102
RTVSPropertyOp6
 70
     1
102
RTVSPropertyOp7
 70
     1
102
RTVSPropertyOp8
 70
     1
102
RTVSPropertyOp9
 70
     1
102
RTVSPropertyOp10
 70
     1
102
RTVSPropertyOp11
 70
     1
102
RTVSPropertyOp12
 70
     1
102
RTVSPropertyOp13
 70
     1
102
RTVSPropertyOp14
 70
     1
102
RTVSPropertyOp15
 70
     1
102
RTVSPropertyOp16
 70
     1
102
RTVSPropertyOp17
 70
     1
102
RTVSPropertyOp18
 70
     1
102
RTVSPropertyOp19
 70
     1
102
RTVSPropertyOp20
 70
     1
102
RTVSPropertyOp21
 70
     1
102
RTVSPropertyOp22
 70
     1
102
RTVSPropertyOp23
 70
     1
102
RTVSPropertyOp24
 70
     1
102
RTVSPropertyOp25
 70
     1
102
RTVSPropertyOp26
 70
     1
102
RTVSPropertyOp27
 70
     1
  0
XRECORD
  5
111
102
{ACAD_REACTORS
330
110
102
}
330
110
100
AcDbXrecord
280
     1
102
RTVSPropertyOp0
 70
     1
102
RTVSPropertyOp1
 70
     1
102
RTVSPropertyOp2
 70
     1
102
RTVSPropertyOp3
 70
     1
102
RTVSPropertyOp4
 70
     1
102
RTVSPropertyOp5
 70
     1
102
RTVSPropertyOp6
 70
     1
102
RTVSPropertyOp7
 70
     1
102
RTVSPropertyOp8
 70
     1
102
RTVSPropertyOp9
 70
     1
102
RTVSPropertyOp10
 70
     1
102
RTVSPropertyOp11
 70
     1
102
RTVSPropertyOp12
 70
     1
102
RTVSPropertyOp13
 70
     1
102
RTVSPropertyOp14
 70
     1
102
RTVSPropertyOp15
 70
     1
102
RTVSPropertyOp16
 70
     1
102
RTVSPropertyOp17
 70
     1
102
RTVSPropertyOp18
 70
     1
102
RTVSPropertyOp19
 70
     1
102
RTVSPropertyOp20
 70
     1
102
RTVSPropertyOp21
 70
     1
102
RTVSPropertyOp22
 70
     1
102
RTVSPropertyOp23
 70
     1
102
RTVSPropertyOp24
 70
     1
102
RTVSPropertyOp25
 70
     1
102
RTVSPropertyOp26
 70
     1
102
RTVSPropertyOp27
 70
     1
  0
XRECORD
  5
10F
102
{ACAD_REACTORS
330
10E
102
}
330
10E
100
AcDbXrecord
280
     1
102
RTVSPropertyOp0
 70
     1
102
RTVSPropertyOp1
 70
     1
102
RTVSPropertyOp2
 70
     1
102
RTVSPropertyOp3
 70
     1
102
RTVSPropertyOp4
 70
     1
102
RTVSPropertyOp5
 70
     1
102
RTVSPropertyOp6
 70
     1
102
RTVSPropertyOp7
 70
     1
102
RTVSPropertyOp8
 70
     1
102
RTVSPropertyOp9
 70
     1
102
RTVSPropertyOp10
 70
     1
102
RTVSPropertyOp11
 70
     1
102
RTVSPropertyOp12
 70
     1
102
RTVSPropertyOp13
 70
     1
102
RTVSPropertyOp14
 70
     1
102
RTVSPropertyOp15
 70
     1
102
RTVSPropertyOp16
 70
     1
102
RTVSPropertyOp17
 70
     1
102
RTVSPropertyOp18
 70
     1
102
RTVSPropertyOp19
 70
     1
102
RTVSPropertyOp20
 70
     1
102
RTVSPropertyOp21
 70
     1
102
RTVSPropertyOp22
 70
     1
102
RTVSPropertyOp23
 70
     1
102
RTVSPropertyOp24
 70
     1
102
RTVSPropertyOp25
 70
     1
102
RTVSPropertyOp26
 70
     1
102
RTVSPropertyOp27
 70
     1
  0
XRECORD
  5
113
102
{ACAD_REACTORS
330
112
102
}
330
112
100
AcDbXrecord
280
     1
102
RTVSPropertyOp0
 70
     1
102
RTVSPropertyOp1
 70
     1
102
RTVSPropertyOp2
 70
     1
102
RTVSPropertyOp3
 70
     1
102
RTVSPropertyOp4
 70
     1
102
RTVSPropertyOp5
 70
     1
102
RTVSPropertyOp6
 70
     1
102
RTVSPropertyOp7
 70
     1
102
RTVSPropertyOp8
 70
     1
102
RTVSPropertyOp9
 70
     1
102
RTVSPropertyOp10
 70
     1
102
RTVSPropertyOp11
 70
     1
102
RTVSPropertyOp12
 70
     1
102
RTVSPropertyOp13
 70
     1
102
RTVSPropertyOp14
 70
     1
102
RTVSPropertyOp15
 70
     1
102
RTVSPropertyOp16
 70
     1
102
RTVSPropertyOp17
 70
     1
102
RTVSPropertyOp18
 70
     1
102
RTVSPropertyOp19
 70
     1
102
RTVSPropertyOp20
 70
     1
102
RTVSPropertyOp21
 70
     1
102
RTVSPropertyOp22
 70
     1
102
RTVSPropertyOp23
 70
     1
102
RTVSPropertyOp24
 70
     1
102
RTVSPropertyOp25
 70
     1
102
RTVSPropertyOp26
 70
     1
102
RTVSPropertyOp27
 70
     1
  0
XRECORD
  5
11B
102
{ACAD_REACTORS
330
11A
102
}
330
11A
100
AcDbXrecord
280
     1
102
RTVSPropertyOp0
 70
     1
102
RTVSPropertyOp1
 70
     1
102
RTVSPropertyOp2
 70
     1
102
RTVSPropertyOp3
 70
     1
102
RTVSPropertyOp4
 70
     1
102
RTVSPropertyOp5
 70
     1
102
RTVSPropertyOp6
 70
     1
102
RTVSPropertyOp7
 70
     1
102
RTVSPropertyOp8
 70
     1
102
RTVSPropertyOp9
 70
     1
102
RTVSPropertyOp10
 70
     1
102
RTVSPropertyOp11
 70
     1
102
RTVSPropertyOp12
 70
     1
102
RTVSPropertyOp13
 70
     1
102
RTVSPropertyOp14
 70
     1
102
RTVSPropertyOp15
 70
     1
102
RTVSPropertyOp16
 70
     1
102
RTVSPropertyOp17
 70
     1
102
RTVSPropertyOp18
 70
     1
102
RTVSPropertyOp19
 70
     1
102
RTVSPropertyOp20
 70
     1
102
RTVSPropertyOp21
 70
     1
102
RTVSPropertyOp22
 70
     1
102
RTVSPropertyOp23
 70
     1
102
RTVSPropertyOp24
 70
     1
102
RTVSPropertyOp25
 70
     1
102
RTVSPropertyOp26
 70
     1
102
RTVSPropertyOp27
 70
     1
  0
XRECORD
  5
123
102
{ACAD_REACTORS
330
122
102
}
330
122
100
AcDbXrecord
280
     1
102
RTVSPropertyOp0
 70
     1
102
RTVSPropertyOp1
 70
     1
102
RTVSPropertyOp2
 70
     1
102
RTVSPropertyOp3
 70
     1
102
RTVSPropertyOp4
 70
     1
102
RTVSPropertyOp5
 70
     1
102
RTVSPropertyOp6
 70
     1
102
RTVSPropertyOp7
 70
     1
102
RTVSPropertyOp8
 70
     1
102
RTVSPropertyOp9
 70
     1
102
RTVSPropertyOp10
 70
     1
102
RTVSPropertyOp11
 70
     1
102
RTVSPropertyOp12
 70
     1
102
RTVSPropertyOp13
 70
     1
102
RTVSPropertyOp14
 70
     1
102
RTVSPropertyOp15
 70
     1
102
RTVSPropertyOp16
 70
     1
102
RTVSPropertyOp17
 70
     1
102
RTVSPropertyOp18
 70
     1
102
RTVSPropertyOp19
 70
     1
102
RTVSPropertyOp20
 70
     1
102
RTVSPropertyOp21
 70
     1
102
RTVSPropertyOp22
 70
     1
102
RTVSPropertyOp23
 70
     1
102
RTVSPropertyOp24
 70
     1
102
RTVSPropertyOp25
 70
     1
102
RTVSPropertyOp26
 70
     1
102
RTVSPropertyOp27
 70
     1
  0
XRECORD
  5
117
102
{ACAD_REACTORS
330
116
102
}
330
116
100
AcDbXrecord
280
     1
102
RTVSPropertyOp0
 70
     1
102
RTVSPropertyOp1
 70
     1
102
RTVSPropertyOp2
 70
     1
102
RTVSPropertyOp3
 70
     1
102
RTVSPropertyOp4
 70
     1
102
RTVSPropertyOp5
 70
     1
102
RTVSPropertyOp6
 70
     1
102
RTVSPropertyOp7
 70
     1
102
RTVSPropertyOp8
 70
     1
102
RTVSPropertyOp9
 70
     1
102
RTVSPropertyOp10
 70
     1
102
RTVSPropertyOp11
 70
     1
102
RTVSPropertyOp12
 70
     1
102
RTVSPropertyOp13
 70
     1
102
RTVSPropertyOp14
 70
     1
102
RTVSPropertyOp15
 70
     1
102
RTVSPropertyOp16
 70
     1
102
RTVSPropertyOp17
 70
     1
102
RTVSPropertyOp18
 70
     1
102
RTVSPropertyOp19
 70
     1
102
RTVSPropertyOp20
 70
     1
102
RTVSPropertyOp21
 70
     1
102
RTVSPropertyOp22
 70
     1
102
RTVSPropertyOp23
 70
     1
102
RTVSPropertyOp24
 70
     1
102
RTVSPropertyOp25
 70
     1
102
RTVSPropertyOp26
 70
     1
102
RTVSPropertyOp27
 70
     1
  0
XRECORD
  5
119
102
{ACAD_REACTORS
330
118
102
}
330
118
100
AcDbXrecord
280
     1
102
RTVSPropertyOp0
 70
     1
102
RTVSPropertyOp1
 70
     1
102
RTVSPropertyOp2
 70
     1
102
RTVSPropertyOp3
 70
     1
102
RTVSPropertyOp4
 70
     1
102
RTVSPropertyOp5
 70
     1
102
RTVSPropertyOp6
 70
     1
102
RTVSPropertyOp7
 70
     1
102
RTVSPropertyOp8
 70
     1
102
RTVSPropertyOp9
 70
     1
102
RTVSPropertyOp10
 70
     1
102
RTVSPropertyOp11
 70
     1
102
RTVSPropertyOp12
 70
     1
102
RTVSPropertyOp13
 70
     1
102
RTVSPropertyOp14
 70
     1
102
RTVSPropertyOp15
 70
     1
102
RTVSPropertyOp16
 70
     1
102
RTVSPropertyOp17
 70
     1
102
RTVSPropertyOp18
 70
     1
102
RTVSPropertyOp19
 70
     1
102
RTVSPropertyOp20
 70
     1
102
RTVSPropertyOp21
 70
     1
102
RTVSPropertyOp22
 70
     1
102
RTVSPropertyOp23
 70
     1
102
RTVSPropertyOp24
 70
     1
102
RTVSPropertyOp25
 70
     1
102
RTVSPropertyOp26
 70
     1
102
RTVSPropertyOp27
 70
     1
  0
XRECORD
  5
121
102
{ACAD_REACTORS
330
120
102
}
330
120
100
AcDbXrecord
280
     1
102
RTVSPropertyOp0
 70
     1
102
RTVSPropertyOp1
 70
     1
102
RTVSPropertyOp2
 70
     1
102
RTVSPropertyOp3
 70
     1
102
RTVSPropertyOp4
 70
     1
102
RTVSPropertyOp5
 70
     1
102
RTVSPropertyOp6
 70
     1
102
RTVSPropertyOp7
 70
     1
102
RTVSPropertyOp8
 70
     1
102
RTVSPropertyOp9
 70
     1
102
RTVSPropertyOp10
 70
     1
102
RTVSPropertyOp11
 70
     1
102
RTVSPropertyOp12
 70
     1
102
RTVSPropertyOp13
 70
     1
102
RTVSPropertyOp14
 70
     1
102
RTVSPropertyOp15
 70
     1
102
RTVSPropertyOp16
 70
     1
102
RTVSPropertyOp17
 70
     1
102
RTVSPropertyOp18
 70
     1
102
RTVSPropertyOp19
 70
     1
102
RTVSPropertyOp20
 70
     1
102
RTVSPropertyOp21
 70
     1
102
RTVSPropertyOp22
 70
     1
102
RTVSPropertyOp23
 70
     1
102
RTVSPropertyOp24
 70
     1
102
RTVSPropertyOp25
 70
     1
102
RTVSPropertyOp26
 70
     1
102
RTVSPropertyOp27
 70
     1
  0
XRECORD
  5
105
102
{ACAD_REACTORS
330
104
102
}
330
104
100
AcDbXrecord
280
     1
102
RTVSPropertyOp0
 70
     1
102
RTVSPropertyOp1
 70
     1
102
RTVSPropertyOp2
 70
     1
102
RTVSPropertyOp3
 70
     1
102
RTVSPropertyOp4
 70
     1
102
RTVSPropertyOp5
 70
     1
102
RTVSPropertyOp6
 70
     1
102
RTVSPropertyOp7
 70
     1
102
RTVSPropertyOp8
 70
     1
102
RTVSPropertyOp9
 70
     1
102
RTVSPropertyOp10
 70
     1
102
RTVSPropertyOp11
 70
     1
102
RTVSPropertyOp12
 70
     1
102
RTVSPropertyOp13
 70
     1
102
RTVSPropertyOp14
 70
     1
102
RTVSPropertyOp15
 70
     1
102
RTVSPropertyOp16
 70
     1
102
RTVSPropertyOp17
 70
     1
102
RTVSPropertyOp18
 70
     1
102
RTVSPropertyOp19
 70
     1
102
RTVSPropertyOp20
 70
     1
102
RTVSPropertyOp21
 70
     1
102
RTVSPropertyOp22
 70
     1
102
RTVSPropertyOp23
 70
     1
102
RTVSPropertyOp24
 70
     1
102
RTVSPropertyOp25
 70
     1
102
RTVSPropertyOp26
 70
     1
102
RTVSPropertyOp27
 70
     1
  0
XRECORD
  5
107
102
{ACAD_REACTORS
330
106
102
}
330
106
100
AcDbXrecord
280
     1
102
RTVSPropertyOp0
 70
     1
102
RTVSPropertyOp1
 70
     1
102
RTVSPropertyOp2
 70
     1
102
RTVSPropertyOp3
 70
     1
102
RTVSPropertyOp4
 70
     1
102
RTVSPropertyOp5
 70
     1
102
RTVSPropertyOp6
 70
     1
102
RTVSPropertyOp7
 70
     1
102
RTVSPropertyOp8
 70
     1
102
RTVSPropertyOp9
 70
     1
102
RTVSPropertyOp10
 70
     1
102
RTVSPropertyOp11
 70
     1
102
RTVSPropertyOp12
 70
     1
102
RTVSPropertyOp13
 70
     1
102
RTVSPropertyOp14
 70
     1
102
RTVSPropertyOp15
 70
     1
102
RTVSPropertyOp16
 70
     1
102
RTVSPropertyOp17
 70
     1
102
RTVSPropertyOp18
 70
     1
102
RTVSPropertyOp19
 70
     1
102
RTVSPropertyOp20
 70
     1
102
RTVSPropertyOp21
 70
     1
102
RTVSPropertyOp22
 70
     1
102
RTVSPropertyOp23
 70
     1
102
RTVSPropertyOp24
 70
     1
102
RTVSPropertyOp25
 70
     1
102
RTVSPropertyOp26
 70
     1
102
RTVSPropertyOp27
 70
     1
  0
XRECORD
  5
109
102
{ACAD_REACTORS
330
108
102
}
330
108
100
AcDbXrecord
280
     1
102
RTVSPropertyOp0
 70
     1
102
RTVSPropertyOp1
 70
     1
102
RTVSPropertyOp2
 70
     1
102
RTVSPropertyOp3
 70
     1
102
RTVSPropertyOp4
 70
     1
102
RTVSPropertyOp5
 70
     1
102
RTVSPropertyOp6
 70
     1
102
RTVSPropertyOp7
 70
     1
102
RTVSPropertyOp8
 70
     1
102
RTVSPropertyOp9
 70
     1
102
RTVSPropertyOp10
 70
     1
102
RTVSPropertyOp11
 70
     1
102
RTVSPropertyOp12
 70
     1
102
RTVSPropertyOp13
 70
     1
102
RTVSPropertyOp14
 70
     1
102
RTVSPropertyOp15
 70
     1
102
RTVSPropertyOp16
 70
     1
102
RTVSPropertyOp17
 70
     1
102
RTVSPropertyOp18
 70
     1
102
RTVSPropertyOp19
 70
     1
102
RTVSPropertyOp20
 70
     1
102
RTVSPropertyOp21
 70
     1
102
RTVSPropertyOp22
 70
     1
102
RTVSPropertyOp23
 70
     1
102
RTVSPropertyOp24
 70
     1
102
RTVSPropertyOp25
 70
     1
102
RTVSPropertyOp26
 70
     1
102
RTVSPropertyOp27
 70
     1
  0
XRECORD
  5
10B
102
{ACAD_REACTORS
330
10A
102
}
330
10A
100
AcDbXrecord
280
     1
102
RTVSPropertyOp0
 70
     1
102
RTVSPropertyOp1
 70
     1
102
RTVSPropertyOp2
 70
     1
102
RTVSPropertyOp3
 70
     1
102
RTVSPropertyOp4
 70
     1
102
RTVSPropertyOp5
 70
     1
102
RTVSPropertyOp6
 70
     1
102
RTVSPropertyOp7
 70
     1
102
RTVSPropertyOp8
 70
     1
102
RTVSPropertyOp9
 70
     1
102
RTVSPropertyOp10
 70
     1
102
RTVSPropertyOp11
 70
     1
102
RTVSPropertyOp12
 70
     1
102
RTVSPropertyOp13
 70
     1
102
RTVSPropertyOp14
 70
     1
102
RTVSPropertyOp15
 70
     1
102
RTVSPropertyOp16
 70
     1
102
RTVSPropertyOp17
 70
     1
102
RTVSPropertyOp18
 70
     1
102
RTVSPropertyOp19
 70
     1
102
RTVSPropertyOp20
 70
     1
102
RTVSPropertyOp21
 70
     1
102
RTVSPropertyOp22
 70
     1
102
RTVSPropertyOp23
 70
     1
102
RTVSPropertyOp24
 70
     1
102
RTVSPropertyOp25
 70
     1
102
RTVSPropertyOp26
 70
     1
102
RTVSPropertyOp27
 70
     1
  0
XRECORD
  5
11F
102
{ACAD_REACTORS
330
11E
102
}
330
11E
100
AcDbXrecord
280
     1
102
RTVSPropertyOp0
 70
     1
102
RTVSPropertyOp1
 70
     1
102
RTVSPropertyOp2
 70
     1
102
RTVSPropertyOp3
 70
     1
102
RTVSPropertyOp4
 70
     1
102
RTVSPropertyOp5
 70
     1
102
RTVSPropertyOp6
 70
     1
102
RTVSPropertyOp7
 70
     1
102
RTVSPropertyOp8
 70
     1
102
RTVSPropertyOp9
 70
     1
102
RTVSPropertyOp10
 70
     1
102
RTVSPropertyOp11
 70
     1
102
RTVSPropertyOp12
 70
     1
102
RTVSPropertyOp13
 70
     1
102
RTVSPropertyOp14
 70
     1
102
RTVSPropertyOp15
 70
     1
102
RTVSPropertyOp16
 70
     1
102
RTVSPropertyOp17
 70
     1
102
RTVSPropertyOp18
 70
     1
102
RTVSPropertyOp19
 70
     1
102
RTVSPropertyOp20
 70
     1
102
RTVSPropertyOp21
 70
     1
102
RTVSPropertyOp22
 70
     1
102
RTVSPropertyOp23
 70
     1
102
RTVSPropertyOp24
 70
     1
102
RTVSPropertyOp25
 70
     1
102
RTVSPropertyOp26
 70
     1
102
RTVSPropertyOp27
 70
     1
  0
XRECORD
  5
115
102
{ACAD_REACTORS
330
114
102
}
330
114
100
AcDbXrecord
280
     1
102
RTVSPropertyOp0
 70
     1
102
RTVSPropertyOp1
 70
     1
102
RTVSPropertyOp2
 70
     1
102
RTVSPropertyOp3
 70
     1
102
RTVSPropertyOp4
 70
     1
102
RTVSPropertyOp5
 70
     1
102
RTVSPropertyOp6
 70
     1
102
RTVSPropertyOp7
 70
     1
102
RTVSPropertyOp8
 70
     1
102
RTVSPropertyOp9
 70
     1
102
RTVSPropertyOp10
 70
     1
102
RTVSPropertyOp11
 70
     1
102
RTVSPropertyOp12
 70
     1
102
RTVSPropertyOp13
 70
     1
102
RTVSPropertyOp14
 70
     1
102
RTVSPropertyOp15
 70
     1
102
RTVSPropertyOp16
 70
     1
102
RTVSPropertyOp17
 70
     1
102
RTVSPropertyOp18
 70
     1
102
RTVSPropertyOp19
 70
     1
102
RTVSPropertyOp20
 70
     1
102
RTVSPropertyOp21
 70
     1
102
RTVSPropertyOp22
 70
     1
102
RTVSPropertyOp23
 70
     1
102
RTVSPropertyOp24
 70
     1
102
RTVSPropertyOp25
 70
     1
102
RTVSPropertyOp26
 70
     1
102
RTVSPropertyOp27
 70
     1
  0
XRECORD
  5
11D
102
{ACAD_REACTORS
330
11C
102
}
330
11C
100
AcDbXrecord
280
     1
102
RTVSPropertyOp0
 70
     1
102
RTVSPropertyOp1
 70
     1
102
RTVSPropertyOp2
 70
     1
102
RTVSPropertyOp3
 70
     1
102
RTVSPropertyOp4
 70
     1
102
RTVSPropertyOp5
 70
     1
102
RTVSPropertyOp6
 70
     1
102
RTVSPropertyOp7
 70
     1
102
RTVSPropertyOp8
 70
     1
102
RTVSPropertyOp9
 70
     1
102
RTVSPropertyOp10
 70
     1
102
RTVSPropertyOp11
 70
     1
102
RTVSPropertyOp12
 70
     1
102
RTVSPropertyOp13
 70
     1
102
RTVSPropertyOp14
 70
     1
102
RTVSPropertyOp15
 70
     1
102
RTVSPropertyOp16
 70
     1
102
RTVSPropertyOp17
 70
     1
102
RTVSPropertyOp18
 70
     1
102
RTVSPropertyOp19
 70
     1
102
RTVSPropertyOp20
 70
     1
102
RTVSPropertyOp21
 70
     1
102
RTVSPropertyOp22
 70
     1
102
RTVSPropertyOp23
 70
     1
102
RTVSPropertyOp24
 70
     1
102
RTVSPropertyOp25
 70
     1
102
RTVSPropertyOp26
 70
     1
102
RTVSPropertyOp27
 70
     1
  0
ENDSEC
  0
EOF
